×

¿Problemas para descargar con Mozilla, EDGE? Deshabilita la opción "Abrir vinculos en una pestaña nueva" tal como lo muestra ésta imagen.

Rápidos y Furiosos 9 (2021) Theatrical Cut REMUX 1080p Latino

184 vistas

Información de Rápidos y Furiosos 9 (2021) Theatrical Cut REMUX 1080p Latino

Datos de la película

  • Calidad: Full 1080p
  • Audio: Se especifica abajo de la Sinopsis
  • Subtitulos: Español Latino SRT- FORZADOS SRT
  • Resolución: 1920x1080p
  • Formato: MKV
  • Codec: H.264
  • Encoder: Melkor
  • Mediainfo: Clic para Mostrar Datos Ver
  • Rápidos y furiosos 9 (2021) REMUX 1080p Latino.mkv
    Format                      : Matroska
    Format version              : Version 4
    File size                   : 23.3 GiB
    Duration                    : 2 h 22 min
    Overall bit rate mode       : Variable
    Overall bit rate            : 23.3 Mb/s
    Movie name                  : Fast & Furious 9 (2021) CinemaniaHDD.Net
    Encoded date                : UTC 2021-09-01 02:30:44
    Writing application         : mkvmerge v56.1.0 ('My Friend') 64-bit
    Writing library             : libebml v1.4.2 + libmatroska v1.6.4
    Attachments                 : CINEMANIAHD.png

    Video
    ID                          : 1
    Format                      : AVC
    Format/Info                 : Advanced Video Codec
    Format profile              : High@L4.1
    Format settings             : CABAC / 4 Ref Frames
    Format settings, CABAC      : Yes
    Format settings, Reference  : 4 frames
    Codec ID                    : V_MPEG4/ISO/AVC
    Duration                    : 2 h 22 min
    Bit rate mode               : Variable
    Bit rate                    : 19.3 Mb/s
    Maximum bit rate            : 31.0 Mb/s
    Width                       : 1 920 pixels
    Height                      : 1 080 pixels
    Display aspect ratio        : 16:9
    Frame rate mode             : Constant
    Frame rate                  : 23.976 (23976/1000) FPS
    Original frame rate         : 23.976 (24000/1001) FPS
    Color space                 : YUV
    Chroma subsampling          : 4:2:0
    Bit depth                   : 8 bits
    Scan type                   : Progressive
    Bits/(Pixel*Frame)          : 0.387
    Stream size                 : 19.2 GiB (83%)
    Title                       : REMUX HD1080p [CinemaniaHDD]
    Default                     : Yes
    Forced                      : Yes

    Audio #1
    ID                          : 2
    Format                      : AC-3
    Format/Info                 : Audio Coding 3
    Commercial name             : Dolby Digital
    Codec ID                    : A_AC3
    Duration                    : 2 h 22 min
    Bit rate mode               : Constant
    Bit rate                    : 448 kb/s
    Channel(s)                  : 6 channels
    Channel layout              : L R C LFE Ls Rs
    Sampling rate               : 48.0 kHz
    Frame rate                  : 31.250 FPS (1536 SPF)
    Compression mode            : Lossy
    Stream size                 : 458 MiB (2%)
    Title                       : Español Latino [CinemaniaHDD]
    Language                    : Spanish
    Service kind                : Complete Main
    Default                     : Yes
    Forced                      : Yes

    Audio #2
    ID                          : 3
    Format                      : MLP FBA 16-ch
    Format/Info                 : Meridian Lossless Packing FBA with 16-channel presentation
    Commercial name             : Dolby TrueHD with Dolby Atmos
    Codec ID                    : A_TRUEHD
    Duration                    : 2 h 22 min
    Bit rate mode               : Variable
    Bit rate                    : 3 102 kb/s
    Maximum bit rate            : 4 590 kb/s
    Channel(s)                  : 8 channels
    Channel layout              : L R C LFE Ls Rs Lb Rb
    Sampling rate               : 48.0 kHz
    Frame rate                  : 1 200.000 FPS (40 SPF)
    Compression mode            : Lossless
    Stream size                 : 3.10 GiB (13%)
    Title                       : Ingles-THD [CinemaniaHDD]
    Language                    : English
    Default                     : No
    Forced                      : No
    Number of dynamic objects   : 11
    Bed channel count           : 1 channel
    Bed channel configuration   : LFE

    Audio #3
    ID                          : 4
    Format                      : AC-3
    Format/Info                 : Audio Coding 3
    Commercial name             : Dolby Digital
    Codec ID                    : A_AC3
    Duration                    : 2 h 22 min
    Bit rate mode               : Constant
    Bit rate                    : 448 kb/s
    Channel(s)                  : 6 channels
    Channel layout              : L R C LFE Ls Rs
    Sampling rate               : 48.0 kHz
    Frame rate                  : 31.250 FPS (1536 SPF)
    Compression mode            : Lossy
    Stream size                 : 458 MiB (2%)
    Title                       : Ingles-AC3 [CinemaniaHDD]
    Language                    : English
    Service kind                : Complete Main
    Default                     : No
    Forced                      : No

    Text #1
    ID                          : 5
    Format                      : UTF-8
    Codec ID                    : S_TEXT/UTF8
    Codec ID/Info               : UTF-8 Plain Text
    Duration                    : 2 h 6 min
    Bit rate                    : 1 b/s
    Count of elements           : 47
    Stream size                 : 990 Bytes (0%)
    Title                       : Forzados-SRT [CinemaniaHDD]
    Language                    : Spanish
    Default                     : Yes
    Forced                      : Yes

    Text #2
    ID                          : 6
    Format                      : UTF-8
    Codec ID                    : S_TEXT/UTF8
    Codec ID/Info               : UTF-8 Plain Text
    Duration                    : 2 h 12 min
    Bit rate                    : 39 b/s
    Count of elements           : 1348
    Stream size                 : 38.2 KiB (0%)
    Title                       : Español-SRT [CinemaniaHDD]
    Language                    : Spanish
    Default                     : No
    Forced                      : No

    Text #3
    ID                          : 7
    Format                      : PGS
    Muxing mode                 : zlib
    Codec ID                    : S_HDMV/PGS
    Codec ID/Info               : Picture based subtitle format used on BDs/HD-DVDs
    Duration                    : 2 h 16 min
    Bit rate                    : 37.0 kb/s
    Count of elements           : 3839
    Stream size                 : 36.0 MiB (0%)
    Title                       : Ingles-PGS [CinemaniaHDD]
    Language                    : English
    Default                     : No
    Forced                      : No

    Menu
    00:00:00.000                : Chapter 01
    00:04:47.745                : Chapter 02
    00:11:11.212                : Chapter 03
    00:20:36.568                : Chapter 04
    00:25:26.566                : Chapter 05
    00:30:26.866                : Chapter 06
    00:34:20.016                : Chapter 07
    00:42:13.489                : Chapter 08
    00:49:39.768                : Chapter 09
    00:55:46.342                : Chapter 10
    00:59:57.969                : Chapter 11
    01:07:58.866                : Chapter 12
    01:19:29.514                : Chapter 13
    01:28:47.113                : Chapter 14
    01:34:53.437                : Chapter 15
    01:40:27.688                : Chapter 16
    01:50:56.858                : Chapter 17
    02:01:02.880                : Chapter 18
    02:05:22.264                : Chapter 19
    02:10:17.726                : Chapter 20

  • Peso: 23.3 GiB

Sinopsis

Descargar Rápidos y Furiosos 9 (2021) REMUX 1080p Latino. Dom Toretto lleva una vida tranquila con Letty y su hijo, el pequeño Brian, pero saben que el peligro siempre acecha. Esta vez, esa amenaza obligará a Dom a enfrentarse a los pecados de su pasado si quiere salvar a quienes más quiere. El equipo se vuelve a reunir para impedir un complot a escala mundial, liderado por uno de los asesinos más peligrosos y mejor conductor a los que se han enfrentado; un hombre que además es el hermano desaparecido de Dom, Jakob. Novena entrega de la famosa franquicia.

Español Latino AC3 5.1 WebDL – Ingles THD 7.1 & AC3 5.1

Ficha técnica

Video trailer de la película

Enlaces de descarga

Rip de Bluray

Descargar Rápidos y Furiosos 9 (2021) Theatrical Cut REMUX 1080p Latino




Aportes de DPeliculasHDmega la pass es:dpeliculashdmega.org Aportes de CinemaniaHD la pass es:cinemaniahdd.com
Guardado en : Acción , Crimen , Remux , Suspenso

Películas relacionadas

descargar Rápidos y Furiosos 9 (2021) Theatrical Cut REMUX 1080p Latino Full 1080p 1080p gratis, Rápidos y Furiosos 9 (2021) Theatrical Cut REMUX 1080p Latino Full 1080p mega 1 link, Rápidos y Furiosos 9 (2021) Theatrical Cut REMUX 1080p Latino Full 1080p pelicula completa, descargar Rápidos y Furiosos 9 (2021) Theatrical Cut REMUX 1080p Latino Full 1080p gratis en mega.

Rápidos y Furiosos 9 (2021) Theatrical Cut REMUX 1080p Latino pelicula full hd, Rápidos y Furiosos 9 (2021) Theatrical Cut REMUX 1080p Latino mega latino, Rápidos y Furiosos 9 (2021) Theatrical Cut REMUX 1080p Latino 4k latino, Rápidos y Furiosos 9 (2021) Theatrical Cut REMUX 1080p Latino pelicula completa, Rápidos y Furiosos 9 (2021) Theatrical Cut REMUX 1080p Latino descargar gratis, descargar Rápidos y Furiosos 9 (2021) Theatrical Cut REMUX 1080p Latino pelicula latino, Rápidos y Furiosos 9 (2021) Theatrical Cut REMUX 1080p Latino 1 link mega, Rápidos y Furiosos 9 (2021) Theatrical Cut REMUX 1080p Latino 1 link google drive, Rápidos y Furiosos 9 (2021) Theatrical Cut REMUX 1080p Latino hd 1080p latino.
Comentarios 0