×

¿Problemas para descargar con Mozilla, EDGE? Deshabilita la opción "Abrir vinculos en una pestaña nueva" tal como lo muestra ésta imagen.

Rápidos y Furiosos 9 (2021) Director’s Cut REMUX 4K HDR Latino – CMHDD

294 vistas

Información de Rápidos y Furiosos 9 (2021) Director’s Cut REMUX 4K HDR Latino – CMHDD

Datos de la película

  • Calidad: 4K HDR
  • Audio: Se especifica abajo de la Sinopsis
  • Subtitulos: Español Latino PGS
  • Resolución: 3840x2160p
  • Formato: MKV
  • Codec: H.264
  • Encoder: Dracarys
  • Mediainfo: Clic para Mostrar Datos Ver
  • Format                      : Matroska
    Format version              : Version 4
    File size                   : 48.7 GiB
    Duration                    : 2 h 29 min
    Overall bit rate mode       : Variable
    Overall bit rate            : 46.5 Mb/s
    Movie name                  : Rápidos y Furiosos 9 (2021) REMUX 4K HDR Latino – CMHDD
    Encoded date                : UTC 2021-09-22 03:48:47
    Writing application         : mkvmerge v17.0.0 ('Be Ur Friend') 64-bit
    Writing library             : libebml v1.3.5 + libmatroska v1.4.8
    Attachments                 : CINEMANIAHD.png

    Video
    ID                          : 1
    Format                      : HEVC
    Format/Info                 : High Efficiency Video Coding
    Format profile              : Main 10@L5.1@High
    HDR format                  : SMPTE ST 2094 App 4, Version 1, HDR10+ Profile B compatible
    Codec ID                    : V_MPEGH/ISO/HEVC
    Duration                    : 2 h 29 min
    Bit rate                    : 41.9 Mb/s
    Width                       : 3 840 pixels
    Height                      : 2 160 pixels
    Display aspect ratio        : 16:9
    Frame rate mode             : Constant
    Frame rate                  : 23.976 (24000/1001) FPS
    Color space                 : YUV
    Chroma subsampling          : 4:2:0 (Type 2)
    Bit depth                   : 10 bits
    Bits/(Pixel*Frame)          : 0.211
    Stream size                 : 43.9 GiB (90%)
    Default                     : Yes
    Forced                      : No
    Color range                 : Limited
    Color primaries             : BT.2020
    Transfer characteristics    : PQ
    Matrix coefficients         : BT.2020 non-constant
    Mastering display color pri : Display P3
    Mastering display luminance : min: 0.0001 cd/m2, max: 1000 cd/m2
    Maximum Content Light Level : 1000 cd/m2
    Maximum Frame-Average Light : 696 cd/m2

    Audio #1
    ID                          : 2
    Format                      : MLP FBA 16-ch
    Format/Info                 : Meridian Lossless Packing FBA with 16-channel presentation
    Commercial name             : Dolby TrueHD with Dolby Atmos
    Codec ID                    : A_TRUEHD
    Duration                    : 2 h 29 min
    Bit rate mode               : Variable
    Bit rate                    : 3 095 kb/s
    Maximum bit rate            : 4 590 kb/s
    Channel(s)                  : 8 channels
    Channel layout              : L R C LFE Ls Rs Lb Rb
    Sampling rate               : 48.0 kHz
    Frame rate                  : 1 200.000 FPS (40 SPF)
    Compression mode            : Lossless
    Stream size                 : 3.24 GiB (7%)
    Language                    : English
    Default                     : No
    Forced                      : No
    Number of dynamic objects   : 11
    Bed channel count           : 1 channel
    Bed channel configuration   : LFE

    Audio #2
    ID                          : 3
    Format                      : E-AC-3
    Format/Info                 : Enhanced AC-3
    Commercial name             : Dolby Digital Plus
    Format profile              : Blu-ray Disc
    Codec ID                    : A_EAC3
    Duration                    : 2 h 29 min
    Bit rate mode               : Constant
    Bit rate                    : 768 kb/s
    Channel(s)                  : 6 channels
    Channel(s)_Original         : 8 channels
    ChannelLayout_Original      : L R C LFE Ls Rs Lrs Rrs
    Sampling rate               : 48.0 kHz
    Frame rate                  : 31.250 FPS (1536 SPF)
    Compression mode            : Lossy
    Stream size                 : 824 MiB (2%)
    Title                       : Español Latino DDP [CinemaniaHDD]
    Language                    : Spanish
    Service kind                : Complete Main
    Default                     : Yes
    Forced                      : Yes

    Audio #3
    ID                          : 4
    Format                      : AC-3
    Format/Info                 : Audio Coding 3
    Commercial name             : Dolby Digital
    Codec ID                    : A_AC3
    Duration                    : 2 h 29 min
    Bit rate mode               : Constant
    Bit rate                    : 640 kb/s
    Channel(s)                  : 6 channels
    Channel layout              : L R C LFE Ls Rs
    Sampling rate               : 48.0 kHz
    Frame rate                  : 31.250 FPS (1536 SPF)
    Compression mode            : Lossy
    Stream size                 : 686 MiB (1%)
    Title                       : Español Latino AC3 [CinemaniaHDD]
    Language                    : Spanish
    Service kind                : Complete Main
    Default                     : No
    Forced                      : No

    Text #1
    ID                          : 5
    Format                      : PGS
    Muxing mode                 : zlib
    Codec ID                    : S_HDMV/PGS
    Codec ID/Info               : Picture based subtitle format used on BDs/HD-DVDs
    Duration                    : 2 h 29 min
    Bit rate                    : 190 b/s
    Count of elements           : 62
    Stream size                 : 210 KiB (0%)
    Title                       : Forzados-PGS [CinemaniaHDD]
    Language                    : Spanish
    Default                     : Yes
    Forced                      : No

    Text #2
    ID                          : 6
    Format                      : PGS
    Muxing mode                 : zlib
    Codec ID                    : S_HDMV/PGS
    Codec ID/Info               : Picture based subtitle format used on BDs/HD-DVDs
    Duration                    : 2 h 28 min
    Bit rate                    : 24.0 kb/s
    Count of elements           : 2940
    Stream size                 : 25.5 MiB (0%)
    Title                       : Español-PGS [CinemaniaHDD]
    Language                    : Spanish
    Default                     : No
    Forced                      : No

    Text #3
    ID                          : 7
    Format                      : UTF-8
    Codec ID                    : S_TEXT/UTF8
    Codec ID/Info               : UTF-8 Plain Text
    Duration                    : 2 h 10 min
    Bit rate                    : 0 b/s
    Count of elements           : 36
    Stream size                 : 722 Bytes (0%)
    Title                       : Forzados-SRT [CinemaniaHDD]
    Language                    : Spanish
    Default                     : No
    Forced                      : Yes

    Text #4
    ID                          : 8
    Format                      : UTF-8
    Codec ID                    : S_TEXT/UTF8
    Codec ID/Info               : UTF-8 Plain Text
    Duration                    : 2 h 19 min
    Bit rate                    : 40 b/s
    Count of elements           : 1468
    Stream size                 : 41.3 KiB (0%)
    Title                       : Español-SRT [CinemaniaHDD]
    Language                    : Spanish
    Default                     : No
    Forced                      : No

    Menu
    00:00:00.000                : en:Chapter 1
    00:04:47.745                : en:Chapter 2
    00:12:27.913                : en:Chapter 3
    00:21:53.270                : en:Chapter 4
    00:26:43.268                : en:Chapter 5
    00:31:43.568                : en:Chapter 6
    00:35:36.717                : en:Chapter 7
    00:45:33.772                : en:Chapter 8
    00:53:42.761                : en:Chapter 9
    01:01:12.668                : en:Chapter 10
    01:05:24.295                : en:Chapter 11
    01:13:55.472                : en:Chapter 12
    01:25:26.120                : en:Chapter 13
    01:35:27.805                : en:Chapter 14
    01:41:34.129                : en:Chapter 15
    01:47:08.380                : en:Chapter 16
    01:57:42.471                : en:Chapter 17
    02:08:02.090                : en:Chapter 18
    02:12:25.478                : en:Chapter 19
    02:17:20.940                : en:Chapter 20

  • Peso: 48.7 GiB

Sinopsis

Dom Toretto lleva una vida tranquila con Letty y su hijo, el pequeño Brian, pero saben que el peligro siempre acecha. Esta vez, esa amenaza obligará a Dom a enfrentarse a los pecados de su pasado si quiere salvar a quienes más quiere. El equipo se vuelve a reunir para impedir un complot a escala mundial, liderado por uno de los asesinos más peligrosos y mejor conductor a los que se han enfrentado; un hombre que además es el hermano desaparecido de Dom, Jakob. Novena entrega de la famosa franquicia.

 

Español latino EAC3 7.1 & AC3 5.1 BD – Ingles THD 7.1 BD

Ficha técnica

Video trailer de la película

Enlaces de descarga

Rip de Bluray

Descargar Rápidos y Furiosos 9 (2021) Director’s Cut REMUX 4K HDR Latino – CMHDD


Aportes de DPeliculasHDmega la pass es:dpeliculashdmega.org Aportes de CinemaniaHD la pass es:cinemaniahdd.com
Guardado en : Acción , Crimen , Suspenso

Películas relacionadas

descargar Rápidos y Furiosos 9 (2021) Director’s Cut REMUX 4K HDR Latino – CMHDD 4K HDR 1080p gratis, Rápidos y Furiosos 9 (2021) Director’s Cut REMUX 4K HDR Latino – CMHDD 4K HDR mega 1 link, Rápidos y Furiosos 9 (2021) Director’s Cut REMUX 4K HDR Latino – CMHDD 4K HDR pelicula completa, descargar Rápidos y Furiosos 9 (2021) Director’s Cut REMUX 4K HDR Latino – CMHDD 4K HDR gratis en mega.

Rápidos y Furiosos 9 (2021) Director’s Cut REMUX 4K HDR Latino – CMHDD pelicula full hd, Rápidos y Furiosos 9 (2021) Director’s Cut REMUX 4K HDR Latino – CMHDD mega latino, Rápidos y Furiosos 9 (2021) Director’s Cut REMUX 4K HDR Latino – CMHDD 4k latino, Rápidos y Furiosos 9 (2021) Director’s Cut REMUX 4K HDR Latino – CMHDD pelicula completa, Rápidos y Furiosos 9 (2021) Director’s Cut REMUX 4K HDR Latino – CMHDD descargar gratis, descargar Rápidos y Furiosos 9 (2021) Director’s Cut REMUX 4K HDR Latino – CMHDD pelicula latino, Rápidos y Furiosos 9 (2021) Director’s Cut REMUX 4K HDR Latino – CMHDD 1 link mega, Rápidos y Furiosos 9 (2021) Director’s Cut REMUX 4K HDR Latino – CMHDD 1 link google drive, Rápidos y Furiosos 9 (2021) Director’s Cut REMUX 4K HDR Latino – CMHDD hd 1080p latino.
Comentarios 0