Rápidos y Furiosos 9 (2021) Director’s Cut PLACEBO Full HD 1080p Latino

50 vistas
1 estrella2 estrellas3 estrellas4 estrellas5 estrellas (2 votos, promedio: 4,00 de 5)
Cargando...

Información de Rápidos y Furiosos 9 (2021) Director’s Cut PLACEBO Full HD 1080p Latino

Datos de la película

  • Calidad: Full 1080p
  • Audio: Se especifica abajo de la Sinopsis
  • Subtitulos: Español Latino PGS - Ingles PGS
  • Resolución: 1920x1080p
  • Formato: MKV
  • Codec: H.264
  • Encoder: Melkor
  • Mediainfo: Clic para Mostrar Datos Ver
  • Rápidos y furiosos 9 (2021) DC PLACEBO 1080p Latino.mkv
    Format                      : Matroska
    Format version              : Version 4
    File size                   : 14.8 GiB
    Duration                    : 2 h 29 min
    Overall bit rate            : 14.2 Mb/s
    Movie name                  : Fast & Furious 9 (2021) CinemaniaHDD.Net
    Encoded date                : UTC 2021-09-21 03:19:30
    Writing application         : mkvmerge v56.1.0 ('My Friend') 64-bit
    Writing library             : libebml v1.4.2 + libmatroska v1.6.4
    Attachments                 : CINEMANIAHD.png

    Video
    ID                          : 1
    Format                      : AVC
    Format/Info                 : Advanced Video Codec
    Format profile              : High@L4.1
    Format settings             : CABAC / 4 Ref Frames
    Format settings, CABAC      : Yes
    Format settings, Reference  : 4 frames
    Codec ID                    : V_MPEG4/ISO/AVC
    Duration                    : 2 h 29 min
    Bit rate                    : 12.3 Mb/s
    Width                       : 1 920 pixels
    Height                      : 1 080 pixels
    Display aspect ratio        : 16:9
    Frame rate mode             : Constant
    Frame rate                  : 23.976 (24000/1001) FPS
    Color space                 : YUV
    Chroma subsampling          : 4:2:0
    Bit depth                   : 8 bits
    Scan type                   : Progressive
    Bits/(Pixel*Frame)          : 0.247
    Stream size                 : 12.9 GiB (87%)
    Title                       : Full HD1080p [CinemaniaHDD]
    Writing library             : x264 core 163 r3059 b684ebe0
    Encoding settings           : cabac=1 / ref=4 / deblock=1:0:0 / analyse=0x3:0x133 / me=tesa / subme=11 / psy=1 / psy_rd=1.00:0.00 / mixed_ref=1 / me_range=24 / chroma_me=1 / trellis=2 / 8x8dct=1 / cqm=0 / deadzone=21,11 / fast_pskip=0 / chroma_qp_offset=-2 / threads=24 / lookahead_threads=6 / sliced_threads=0 / nr=0 / decimate=1 / interlaced=0 / bluray_compat=0 / constrained_intra=0 / bframes=16 / b_pyramid=2 / b_adapt=2 / b_bias=0 / direct=3 / weightb=1 / open_gop=0 / weightp=2 / keyint=240 / keyint_min=24 / scenecut=40 / intra_refresh=0 / rc_lookahead=60 / rc=crf / mbtree=1 / crf=19.5 / qcomp=0.60 / qpmin=0 / qpmax=69 / qpstep=4 / vbv_maxrate=62500 / vbv_bufsize=78125 / crf_max=0.0 / nal_hrd=none / filler=0 / ip_ratio=1.40 / aq=1:1.00
    Default                     : Yes
    Forced                      : Yes
    Color range                 : Limited
    Color primaries             : BT.709
    Transfer characteristics    : BT.709
    Matrix coefficients         : BT.709

    Audio #1
    ID                          : 2
    Format                      : E-AC-3
    Format/Info                 : Enhanced AC-3
    Commercial name             : Dolby Digital Plus
    Format profile              : Blu-ray Disc
    Codec ID                    : A_EAC3
    Duration                    : 2 h 29 min
    Bit rate mode               : Constant
    Bit rate                    : 768 kb/s
    Channel(s)                  : 8 channels
    Channel layout              : L R C LFE Ls Rs Lb Rb
    Sampling rate               : 48.0 kHz
    Frame rate                  : 31.250 FPS (1536 SPF)
    Compression mode            : Lossy
    Stream size                 : 824 MiB (5%)
    Title                       : Español Latino DDP [CinemaniaHDD]
    Language                    : Spanish
    Service kind                : Complete Main
    Default                     : Yes
    Forced                      : Yes

    Audio #2
    ID                          : 3
    Format                      : AC-3
    Format/Info                 : Audio Coding 3
    Commercial name             : Dolby Digital
    Codec ID                    : A_AC3
    Duration                    : 2 h 29 min
    Bit rate mode               : Constant
    Bit rate                    : 448 kb/s
    Channel(s)                  : 6 channels
    Channel layout              : L R C LFE Ls Rs
    Sampling rate               : 48.0 kHz
    Frame rate                  : 31.250 FPS (1536 SPF)
    Compression mode            : Lossy
    Stream size                 : 480 MiB (3%)
    Title                       : Ingles AC3 [CinemaniaHDD]
    Language                    : English
    Service kind                : Complete Main
    Default                     : No
    Forced                      : No

    Audio #3
    ID                          : 4
    Format                      : AC-3
    Format/Info                 : Audio Coding 3
    Commercial name             : Dolby Digital
    Codec ID                    : A_AC3
    Duration                    : 2 h 29 min
    Bit rate mode               : Constant
    Bit rate                    : 640 kb/s
    Channel(s)                  : 6 channels
    Channel layout              : L R C LFE Ls Rs
    Sampling rate               : 48.0 kHz
    Frame rate                  : 31.250 FPS (1536 SPF)
    Compression mode            : Lossy
    Stream size                 : 686 MiB (5%)
    Title                       : Español Latino AC3 [CinemaniaHDD]
    Language                    : Spanish
    Service kind                : Complete Main
    Default                     : No
    Forced                      : No

    Text #1
    ID                          : 5
    Format                      : PGS
    Muxing mode                 : zlib
    Codec ID                    : S_HDMV/PGS
    Codec ID/Info               : Picture based subtitle format used on BDs/HD-DVDs
    Duration                    : 2 h 29 min
    Bit rate                    : 190 b/s
    Count of elements           : 62
    Stream size                 : 210 KiB (0%)
    Title                       : Forzados-PGS [CinemaniaHDD]
    Language                    : Spanish
    Default                     : No
    Forced                      : No

    Text #2
    ID                          : 6
    Format                      : PGS
    Muxing mode                 : zlib
    Codec ID                    : S_HDMV/PGS
    Codec ID/Info               : Picture based subtitle format used on BDs/HD-DVDs
    Duration                    : 2 h 28 min
    Bit rate                    : 24.0 kb/s
    Count of elements           : 2940
    Stream size                 : 25.5 MiB (0%)
    Title                       : Español-PGS [CinemaniaHDD]
    Language                    : Spanish
    Default                     : No
    Forced                      : No

    Text #3
    ID                          : 7
    Format                      : PGS
    Muxing mode                 : zlib
    Codec ID                    : S_HDMV/PGS
    Codec ID/Info               : Picture based subtitle format used on BDs/HD-DVDs
    Duration                    : 2 h 23 min
    Bit rate                    : 37.5 kb/s
    Count of elements           : 4081
    Stream size                 : 38.4 MiB (0%)
    Title                       : Ingles-PGS [CinemaniaHDD]
    Language                    : English
    Default                     : No
    Forced                      : No

    Text #4
    ID                          : 8
    Format                      : UTF-8
    Codec ID                    : S_TEXT/UTF8
    Codec ID/Info               : UTF-8 Plain Text
    Duration                    : 2 h 10 min
    Bit rate                    : 0 b/s
    Count of elements           : 36
    Stream size                 : 722 Bytes (0%)
    Title                       : Forzados-SRT [CinemaniaHDD]
    Language                    : Spanish
    Default                     : Yes
    Forced                      : Yes

    Text #5
    ID                          : 9
    Format                      : UTF-8
    Codec ID                    : S_TEXT/UTF8
    Codec ID/Info               : UTF-8 Plain Text
    Duration                    : 2 h 19 min
    Bit rate                    : 40 b/s
    Count of elements           : 1468
    Stream size                 : 41.3 KiB (0%)
    Title                       : Español-SRT [CinemaniaHDD]
    Language                    : Spanish
    Default                     : No
    Forced                      : No

    Menu
    00:00:00.000                : Chapter 01
    00:04:47.745                : Chapter 02
    00:12:27.913                : Chapter 03
    00:21:53.270                : Chapter 04
    00:26:43.268                : Chapter 05
    00:31:43.568                : Chapter 06
    00:35:36.717                : Chapter 07
    00:45:33.772                : Chapter 08
    00:53:42.761                : Chapter 09
    01:01:12.668                : Chapter 10
    01:05:24.295                : Chapter 11
    01:13:55.472                : Chapter 12
    01:25:26.120                : Chapter 13
    01:35:27.805                : Chapter 14
    01:41:34.129                : Chapter 15
    01:47:08.380                : Chapter 16
    01:57:42.471                : Chapter 17
    02:08:02.090                : Chapter 18
    02:12:25.478                : Chapter 19
    02:17:20.940                : Chapter 20

  • Peso: 14.8 GiB

Sinopsis

Descargar Rápidos y Furiosos 9 (2021) Director’s Cut PLACEBO Full HD 1080p Latino. Dom Toretto lleva una vida tranquila con Letty y su hijo, el pequeño Brian, pero saben que el peligro siempre acecha. Esta vez, esa amenaza obligará a Dom a enfrentarse a los pecados de su pasado si quiere salvar a quienes más quiere. El equipo se vuelve a reunir para impedir un complot a escala mundial, liderado por uno de los asesinos más peligrosos y mejor conductor a los que se han enfrentado; un hombre que además es el hermano desaparecido de Dom, Jakob. Novena entrega de la famosa franquicia.

Español latino EAC3 7.1 & AC3 5.1 BD – Ingles AC3 5.1 BD

Ficha técnica

Video trailer de la película

Enlaces de descarga

Rip de Bluray

Descargar Rápidos y Furiosos 9 (2021) Director’s Cut PLACEBO Full HD 1080p Latino




Aportes de DPeliculasHDmega la pass es:dpeliculashdmega.org Aportes de CinemaniaHD la pass es:cinemaniahdd.com

Películas relacionadas

  • Dune (2021) HMAX 4K-HDR WEB-DL 2160p Latino

    Dune (2021) HMAX 4K-HDR WEB-DL 2160p Latino

    2021
    Dune (2021) HMAX 4K-HDR WEB-DL 2160p Latino

    5.0 2h 35m 2021

    El hijo de una familia noble trata de vengarse de la muerte de su padre al mismo tiempo que salva un...

    Director: Tom Struthers

    Género: Acción

    Actores: Zendaya

  • Dune (2021) HMAX WEB-DL 1080p Latino

    Dune (2021) HMAX WEB-DL 1080p Latino

    2021
    Dune (2021) HMAX WEB-DL 1080p Latino

    5.0 2h 35m 2021

    El hijo de una familia noble trata de vengarse de la muerte de su padre al mismo tiempo que salva un...

    Director: Tom Struthers

    Género: Acción

    Actores: Zendaya

  • Playhouse (2020) PLACEBO Full HD 1080p Latino

    Playhouse (2020) PLACEBO Full HD 1080p Latino

    2020
    Playhouse (2020) PLACEBO Full HD 1080p Latino

    0.0 1h 27m 2020

    Descargar Playhouse (2020) PLACEBO Full HD 1080p Latino. El temerario Jack Travis (William Holstead)...

    Director: Toby Watts

    Género: FULL 1080p Plateadas

    Actores: William Holstead

  • Playhouse (2020) HD 1080p Latino

    Playhouse (2020) HD 1080p Latino

    2020
    Playhouse (2020) HD 1080p Latino

    0.0 1h 27m 2020

    Descargar Playhouse (2020) HD 1080p Latino. El temerario Jack Travis (William Holstead) es un irreverente...

    Director: Toby Watts

    Género: HD 1080p

    Actores: William Holstead

  • Playhouse (2020) REMUX 1080p Latino

    Playhouse (2020) REMUX 1080p Latino

    2020
    Playhouse (2020) REMUX 1080p Latino

    0.0 1h 27m 2020

    Descargar Playhouse (2020) REMUX 1080p Latino. El temerario Jack Travis (William Holstead) es un irreverente...

    Director: Toby Watts

    Género: Remux

    Actores: William Holstead

Rápidos y Furiosos 9 (2021) Director’s Cut PLACEBO Full HD 1080p Latino pelicula full hd, Rápidos y Furiosos 9 (2021) Director’s Cut PLACEBO Full HD 1080p Latino mega latino, Rápidos y Furiosos 9 (2021) Director’s Cut PLACEBO Full HD 1080p Latino 4k latino, Rápidos y Furiosos 9 (2021) Director’s Cut PLACEBO Full HD 1080p Latino pelicula completa, Rápidos y Furiosos 9 (2021) Director’s Cut PLACEBO Full HD 1080p Latino descargar gratis, descargar Rápidos y Furiosos 9 (2021) Director’s Cut PLACEBO Full HD 1080p Latino pelicula latino, Rápidos y Furiosos 9 (2021) Director’s Cut PLACEBO Full HD 1080p Latino 1 link mega, Rápidos y Furiosos 9 (2021) Director’s Cut PLACEBO Full HD 1080p Latino 1 link google drive, Rápidos y Furiosos 9 (2021) Director’s Cut PLACEBO Full HD 1080p Latino hd 1080p latino.
Comentarios 0