×

¿Problemas para descargar con Mozilla, EDGE? Deshabilita la opción "Abrir vinculos en una pestaña nueva" tal como lo muestra ésta imagen.

Rápido y Furioso 8 (2017) [Open Matte] WEB-DL 1080p Latino

346 vistas

Información de Rápido y Furioso 8 (2017) [Open Matte] WEB-DL 1080p Latino

Datos de la película

  • Calidad: 1080p
  • Audio: Español Latino AC3 5.1 WEB-DL - Ingles AC3 5.1 WEB-DL
  • Subtitulos: Español Latino SRT- FORZADOS SRT
  • Resolución: 1920x1080
  • Formato: MKV
  • Codec: H.264
  • Encoder: cinemaniahdd
  • Mediainfo: Clic para Mostrar Datos Ver
  • Rápido y Furioso 8 (2017) [Open Matte] WEB-DL 1080p Latino [CNMNHDD].mkv
    Format                      : Matroska
    Format version              : Version 4
    File size                   : 11.0 GiB
    Duration                    : 2 h 15 min
    Overall bit rate mode       : Variable
    Overall bit rate            : 11.6 Mb/s
    Movie name                  : Rápido y Furioso 8 (2017) [Open Matte] - CinemaniaHDD.Net
    Encoded date                : UTC 2021-08-12 01:32:00
    Writing application         : mkvmerge v56.1.0 ('My Friend') 64-bit
    Writing library             : libebml v1.4.2 + libmatroska v1.6.4

    Video
    ID                          : 1
    Format                      : AVC
    Format/Info                 : Advanced Video Codec
    Format profile              : High@L4
    Format settings             : CABAC / 4 Ref Frames
    Format settings, CABAC      : Yes
    Format settings, Reference  : 4 frames
    Codec ID                    : V_MPEG4/ISO/AVC
    Duration                    : 2 h 15 min
    Bit rate mode               : Variable
    Bit rate                    : 10.3 Mb/s
    Maximum bit rate            : 15.0 Mb/s
    Width                       : 1 920 pixels
    Height                      : 1 080 pixels
    Display aspect ratio        : 16:9
    Frame rate mode             : Constant
    Frame rate                  : 23.976 (24000/1001) FPS
    Color space                 : YUV
    Chroma subsampling          : 4:2:0
    Bit depth                   : 8 bits
    Scan type                   : Progressive
    Bits/(Pixel*Frame)          : 0.207
    Stream size                 : 9.77 GiB (89%)
    Title                       : CinemaniaHDD
    Language                    : English
    Default                     : Yes
    Forced                      : No
    Color range                 : Limited
    Color primaries             : BT.709
    Transfer characteristics    : BT.709
    Matrix coefficients         : BT.709

    Audio #1
    ID                          : 2
    Format                      : AC-3
    Format/Info                 : Audio Coding 3
    Commercial name             : Dolby Digital
    Codec ID                    : A_AC3
    Duration                    : 2 h 15 min
    Bit rate mode               : Constant
    Bit rate                    : 640 kb/s
    Channel(s)                  : 6 channels
    Channel layout              : L R C LFE Ls Rs
    Sampling rate               : 48.0 kHz
    Frame rate                  : 31.250 FPS (1536 SPF)
    Compression mode            : Lossy
    Delay relative to video     : 24 ms
    Stream size                 : 622 MiB (6%)
    Title                       : Español latino [CinemaniaHDD]
    Language                    : Spanish
    Service kind                : Complete Main
    Default                     : Yes
    Forced                      : No

    Audio #2
    ID                          : 3
    Format                      : AC-3
    Format/Info                 : Audio Coding 3
    Commercial name             : Dolby Digital
    Codec ID                    : A_AC3
    Duration                    : 2 h 15 min
    Bit rate mode               : Constant
    Bit rate                    : 640 kb/s
    Channel(s)                  : 6 channels
    Channel layout              : L R C LFE Ls Rs
    Sampling rate               : 48.0 kHz
    Frame rate                  : 31.250 FPS (1536 SPF)
    Compression mode            : Lossy
    Delay relative to video     : 24 ms
    Stream size                 : 622 MiB (6%)
    Title                       : Inglés [CinemaniaHDD]
    Language                    : English
    Service kind                : Complete Main
    Default                     : No
    Forced                      : No

    Text #1
    ID                          : 4
    Format                      : UTF-8
    Codec ID                    : S_TEXT/UTF8
    Codec ID/Info               : UTF-8 Plain Text
    Duration                    : 2 h 14 min
    Bit rate                    : 1 b/s
    Count of elements           : 70
    Stream size                 : 1.54 KiB (0%)
    Title                       : Forzados [CinemaniaHDD]
    Language                    : Spanish
    Default                     : Yes
    Forced                      : Yes

    Text #2
    ID                          : 5
    Format                      : UTF-8
    Codec ID                    : S_TEXT/UTF8
    Codec ID/Info               : UTF-8 Plain Text
    Duration                    : 2 h 5 min
    Bit rate                    : 49 b/s
    Count of elements           : 1522
    Stream size                 : 45.8 KiB (0%)
    Title                       : Español latino [CinemaniaHDD]
    Language                    : Spanish
    Default                     : No
    Forced                      : No

    Menu
    00:00:00.000                : Chapter 1
    00:13:07.878                : Chapter 2
    00:20:29.736                : Chapter 3
    00:26:37.603                : Chapter 4
    00:32:25.743                : Chapter 5
    00:36:39.538                : Chapter 6
    00:43:34.578                : Chapter 7
    00:47:44.744                : Chapter 8
    00:55:59.697                : Chapter 9
    01:04:07.267                : Chapter 10
    01:09:07.025                : Chapter 11
    01:13:23.239                : Chapter 12
    01:21:24.679                : Chapter 13
    01:29:28.912                : Chapter 14
    01:35:11.421                : Chapter 15
    01:39:54.746                : Chapter 16
    01:44:59.676                : Chapter 17
    01:53:00.823                : Chapter 18
    02:01:50.227                : Chapter 19
    02:06:44.062                : Chapter 20

     

  • Peso: 11.0 GiB

Sinopsis

La carrera ha comenzado. Dom Toretto y su equipo volverán en esta ocasión con más ganas de guerra que nunca. No faltarán los excesos de velocidad y la adrenalina a raudales para un filme del que se espera que sea la entrega con más acción de esta saga callejera por excelencia.

Ficha técnica

Video trailer de la película

Enlaces de descarga

Rip de Bluray

Descargar Rápido y Furioso 8 (2017) [Open Matte] WEB-DL 1080p Latino




Aportes de DPeliculasHDmega la pass es:dpeliculashdmega.org Aportes de CinemaniaHD la pass es:cinemaniahdd.com
Guardado en : Acción , Crimen , OPEN MATTE , Suspenso

Películas relacionadas

descargar Rápido y Furioso 8 (2017) [Open Matte] WEB-DL 1080p Latino 1080p 1080p gratis, Rápido y Furioso 8 (2017) [Open Matte] WEB-DL 1080p Latino 1080p mega 1 link, Rápido y Furioso 8 (2017) [Open Matte] WEB-DL 1080p Latino 1080p pelicula completa, descargar Rápido y Furioso 8 (2017) [Open Matte] WEB-DL 1080p Latino 1080p gratis en mega.

Rápido y Furioso 8 (2017) [Open Matte] WEB-DL 1080p Latino pelicula full hd, Rápido y Furioso 8 (2017) [Open Matte] WEB-DL 1080p Latino mega latino, Rápido y Furioso 8 (2017) [Open Matte] WEB-DL 1080p Latino 4k latino, Rápido y Furioso 8 (2017) [Open Matte] WEB-DL 1080p Latino pelicula completa, Rápido y Furioso 8 (2017) [Open Matte] WEB-DL 1080p Latino descargar gratis, descargar Rápido y Furioso 8 (2017) [Open Matte] WEB-DL 1080p Latino pelicula latino, Rápido y Furioso 8 (2017) [Open Matte] WEB-DL 1080p Latino 1 link mega, Rápido y Furioso 8 (2017) [Open Matte] WEB-DL 1080p Latino 1 link google drive, Rápido y Furioso 8 (2017) [Open Matte] WEB-DL 1080p Latino hd 1080p latino.
Comentarios 0