×

¿Problemas para descargar con Mozilla, EDGE? Deshabilita la opción "Abrir vinculos en una pestaña nueva" tal como lo muestra ésta imagen.

Rápido y Furioso 8 (2017) Full HD 1080p Latino – CMHDD

584 vistas

Información de Rápido y Furioso 8 (2017) Full HD 1080p Latino – CMHDD

Datos de la película

  • Calidad: Full 1080p
  • Audio: Español Latino DTS 5.1 BLURAY - Ingles DTS 5.1 BLURAY
  • Subtitulos: Español Latino SRT- FORZADOS SRT
  • Resolución: 1920x1080p
  • Formato: MKV
  • Codec: H.264
  • Encoder: Dracarus
  • Mediainfo: Clic para Mostrar Datos Ver
  • Format                      : Matroska
    Format version              : Version 4
    File size                   : 6.64 GiB
    Duration                    : 2 h 15 min
    Overall bit rate            : 6 988 kb/s
    Movie name                  : Rápido y Furioso 8 (2017) Full HD 1080p Latino - CMHDD
    Encoded date                : UTC 2020-05-24 08:15:59 / UTC 2017-06-30T19:13:36Z
    Writing application         : mkvmerge v46.0.0 ('No Deeper Escape') 64-bit
    Writing library             : libebml v1.3.10 + libmatroska v1.5.2 / Lavf57.7.2

    Video
    ID                          : 1
    Format                      : AVC
    Format/Info                 : Advanced Video Codec
    Format profile              : High@L4.1
    Format settings             : CABAC / 4 Ref Frames
    Format settings, CABAC      : Yes
    Format settings, Reference  : 4 frames
    Codec ID                    : V_MPEG4/ISO/AVC
    Duration                    : 2 h 15 min
    Bit rate                    : 4 572 kb/s
    Width                       : 1 920 pixels
    Height                      : 1 080 pixels
    Display aspect ratio        : 16:9
    Frame rate mode             : Constant
    Frame rate                  : 23.976 (24000/1001) FPS
    Color space                 : YUV
    Chroma subsampling          : 4:2:0
    Bit depth                   : 8 bits
    Scan type                   : Progressive
    Bits/(Pixel*Frame)          : 0.092
    Stream size                 : 4.34 GiB (65%)
    Writing library             : x264 core 148 r2708 86b7198
    Encoding settings           : cabac=1 / ref=4 / deblock=1:0:0 / analyse=0x3:0x133 / me=esa / subme=10 / psy=1 / psy_rd=1.00:0.00 / mixed_ref=1 / me_range=24 / chroma_me=1 / trellis=2 / 8x8dct=1 / cqm=0 / deadzone=21,11 / fast_pskip=1 / chroma_qp_offset=-2 / threads=34 / lookahead_threads=5 / sliced_threads=0 / nr=0 / decimate=1 / interlaced=0 / bluray_compat=0 / constrained_intra=0 / bframes=8 / b_pyramid=2 / b_adapt=2 / b_bias=0 / direct=3 / weightb=1 / open_gop=0 / weightp=2 / keyint=240 / keyint_min=24 / scenecut=40 / intra_refresh=0 / rc_lookahead=60 / rc=crf / mbtree=1 / crf=20.0 / qcomp=0.60 / qpmin=0 / qpmax=69 / qpstep=4 / vbv_maxrate=62500 / vbv_bufsize=78125 / crf_max=0.0 / nal_hrd=none / filler=0 / ip_ratio=1.40 / aq=1:1.00
    Default                     : Yes
    Forced                      : No
    Color range                 : Limited
    Color primaries             : BT.709
    Transfer characteristics    : BT.709
    Matrix coefficients         : BT.709
    Statistics Tags Issue       : mkvmerge v46.0.0 ('No Deeper Escape') 64-bit 2020-05-24 08:15:59 / mkvmerge v46.0.0 ('No Deeper Escape') 64-bit 2020-05-24 08:15:59 / UTC 2017-06-30T19:13:36Z
    FromStats_BitRate           : 4698905
    FromStats_Duration          : 02:15:56.899000000
    FromStats_FrameCount        : 195570
    FromStats_StreamSize        : 4791061881
    Duration_Source             : General_Duration

    Audio #1
    ID                          : 2
    Format                      : DTS
    Format/Info                 : Digital Theater Systems
    Codec ID                    : A_DTS
    Duration                    : 2 h 15 min
    Bit rate mode               : Constant
    Bit rate                    : 768 kb/s
    Channel(s)                  : 6 channels
    Channel layout              : C L R Ls Rs LFE
    Sampling rate               : 48.0 kHz
    Frame rate                  : 93.750 FPS (512 SPF)
    Bit depth                   : 24 bits
    Compression mode            : Lossy
    Stream size                 : 747 MiB (11%)
    Language                    : Spanish
    Default                     : Yes
    Forced                      : No
    Statistics Tags Issue       : mkvmerge v46.0.0 ('No Deeper Escape') 64-bit 2020-05-24 08:15:59 / mkvmerge v46.0.0 ('No Deeper Escape') 64-bit 2020-05-24 08:15:59 / UTC 2017-06-30T19:13:36Z
    FromStats_BitRate           : 768000
    FromStats_Duration          : 02:15:57.365000000
    FromStats_FrameCount        : 764753
    FromStats_StreamSize        : 783107072
    Duration_Source             : General_Duration

    Audio #2
    ID                          : 3
    Format                      : DTS
    Format/Info                 : Digital Theater Systems
    Codec ID                    : A_DTS
    Duration                    : 2 h 15 min
    Bit rate mode               : Constant
    Bit rate                    : 1 509 kb/s
    Channel(s)                  : 6 channels
    Channel layout              : C L R Ls Rs LFE
    Sampling rate               : 48.0 kHz
    Frame rate                  : 93.750 FPS (512 SPF)
    Bit depth                   : 24 bits
    Compression mode            : Lossy
    Stream size                 : 1.43 GiB (22%)
    Language                    : English
    Default                     : No
    Forced                      : No
    Statistics Tags Issue       : mkvmerge v46.0.0 ('No Deeper Escape') 64-bit 2020-05-24 08:15:59 / mkvmerge v46.0.0 ('No Deeper Escape') 64-bit 2020-05-24 08:15:59 / UTC 2017-06-30T19:13:36Z
    FromStats_BitRate           : 1509000
    FromStats_Duration          : 02:15:57.365000000
    FromStats_FrameCount        : 764753
    FromStats_StreamSize        : 1538683036
    Duration_Source             : General_Duration

    Text #1
    ID                          : 4
    Format                      : UTF-8
    Codec ID                    : S_TEXT/UTF8
    Codec ID/Info               : UTF-8 Plain Text
    Title                       : SRT-Forzados
    Language                    : Spanish
    Default                     : Yes
    Forced                      : No
    Statistics Tags Issue       : mkvmerge v46.0.0 ('No Deeper Escape') 64-bit 2020-05-24 08:15:59 / mkvmerge v46.0.0 ('No Deeper Escape') 64-bit 2020-05-24 08:15:59 / UTC 2017-06-30T19:13:36Z
    FromStats_BitRate           : 1
    FromStats_Duration          : 02:14:47.646000000
    FromStats_FrameCount        : 70
    FromStats_StreamSize        : 1577

    Text #2
    ID                          : 5
    Format                      : UTF-8
    Codec ID                    : S_TEXT/UTF8
    Codec ID/Info               : UTF-8 Plain Text
    Title                       : SRT-Completos
    Language                    : Spanish
    Default                     : No
    Forced                      : No
    Statistics Tags Issue       : mkvmerge v46.0.0 ('No Deeper Escape') 64-bit 2020-05-24 08:15:59 / mkvmerge v46.0.0 ('No Deeper Escape') 64-bit 2020-05-24 08:15:59 / UTC 2017-06-30T19:13:36Z
    FromStats_BitRate           : 56
    FromStats_Duration          : 02:06:43.479000000
    FromStats_FrameCount        : 1570
    FromStats_StreamSize        : 53423

    Text #3
    ID                          : 6
    Format                      : PGS
    Muxing mode                 : zlib
    Codec ID                    : S_HDMV/PGS
    Codec ID/Info               : Picture based subtitle format used on BDs/HD-DVDs
    Title                       : PGS-Completos
    Language                    : Spanish
    Default                     : No
    Forced                      : No
    Statistics Tags Issue       : mkvmerge v46.0.0 ('No Deeper Escape') 64-bit 2020-05-24 08:15:59 / mkvmerge v46.0.0 ('No Deeper Escape') 64-bit 2020-05-24 08:15:59 / UTC 2017-06-30T19:13:36Z
    FromStats_BitRate           : 29524
    FromStats_Duration          : 02:14:49.373000000
    FromStats_FrameCount        : 3056
    FromStats_StreamSize        : 29853908

    Text #4
    ID                          : 7
    Format                      : PGS
    Muxing mode                 : zlib
    Codec ID                    : S_HDMV/PGS
    Codec ID/Info               : Picture based subtitle format used on BDs/HD-DVDs
    Title                       : PGS-Forzados
    Language                    : Spanish
    Default                     : No
    Forced                      : No
    Statistics Tags Issue       : mkvmerge v46.0.0 ('No Deeper Escape') 64-bit 2020-05-24 08:15:59 / mkvmerge v46.0.0 ('No Deeper Escape') 64-bit 2020-05-24 08:15:59 / UTC 2017-06-30T19:13:36Z
    FromStats_BitRate           : 1180
    FromStats_Duration          : 02:14:49.373000000
    FromStats_FrameCount        : 142
    FromStats_StreamSize        : 1193883

    Menu
    00:00:00.000                : :Chapter 1
    00:13:08.913                : :Chapter 2
    00:20:30.771                : :Chapter 3
    00:26:38.639                : :Chapter 4
    00:32:26.778                : :Chapter 5
    00:36:40.573                : :Chapter 6
    00:43:35.613                : :Chapter 7
    00:47:45.029                : :Chapter 8
    00:56:00.732                : :Chapter 9
    01:04:08.303                : :Chapter 10
    01:09:07.310                : :Chapter 11
    01:13:24.275                : :Chapter 12
    01:21:25.714                : :Chapter 13
    01:29:29.948                : :Chapter 14
    01:35:12.457                : :Chapter 15
    01:39:55.781                : :Chapter 16
    01:45:00.711                : :Chapter 17
    01:53:01.858                : :Chapter 18
    02:01:51.262                : :Chapter 19
    02:06:45.098                : :Chapter 20

  • Peso: 6.64 GiB

Sinopsis

La carrera ha comenzado. Dom Toretto y su equipo volverán en esta ocasión con más ganas de guerra que nunca. No faltarán los excesos de velocidad y la adrenalina a raudales para un filme del que se espera que sea la entrega con más acción de esta saga callejera por excelencia.

Ficha técnica

Video trailer de la película

Enlaces de descarga

Rip de Bluray

Descargar Rápido y Furioso 8 (2017) Full HD 1080p Latino – CMHDD




Aportes de DPeliculasHDmega la pass es:dpeliculashdmega.org Aportes de CinemaniaHD la pass es:cinemaniahdd.com

Películas relacionadas

descargar Rápido y Furioso 8 (2017) Full HD 1080p Latino – CMHDD Full 1080p 1080p gratis, Rápido y Furioso 8 (2017) Full HD 1080p Latino – CMHDD Full 1080p mega 1 link, Rápido y Furioso 8 (2017) Full HD 1080p Latino – CMHDD Full 1080p pelicula completa, descargar Rápido y Furioso 8 (2017) Full HD 1080p Latino – CMHDD Full 1080p gratis en mega.

Rápido y Furioso 8 (2017) Full HD 1080p Latino – CMHDD pelicula full hd, Rápido y Furioso 8 (2017) Full HD 1080p Latino – CMHDD mega latino, Rápido y Furioso 8 (2017) Full HD 1080p Latino – CMHDD 4k latino, Rápido y Furioso 8 (2017) Full HD 1080p Latino – CMHDD pelicula completa, Rápido y Furioso 8 (2017) Full HD 1080p Latino – CMHDD descargar gratis, descargar Rápido y Furioso 8 (2017) Full HD 1080p Latino – CMHDD pelicula latino, Rápido y Furioso 8 (2017) Full HD 1080p Latino – CMHDD 1 link mega, Rápido y Furioso 8 (2017) Full HD 1080p Latino – CMHDD 1 link google drive, Rápido y Furioso 8 (2017) Full HD 1080p Latino – CMHDD hd 1080p latino.