×

¿Problemas para descargar con Mozilla, EDGE? Deshabilita la opción "Abrir vinculos en una pestaña nueva" tal como lo muestra ésta imagen.

Rápido y Furioso 6 (2013) REMUX 1080p Latino – CMHDD

320 vistas

Información de Rápido y Furioso 6 (2013) REMUX 1080p Latino – CMHDD

Datos de la película

  • Calidad: Full 1080p
  • Audio: Español Latino DTS 5.1 BLURAY - Ingles DTS 5.1 BLURAY
  • Subtitulos: Español Latino SRT- FORZADOS SRT
  • Resolución: 1920x1080p
  • Formato: MKV
  • Codec: H.264
  • Encoder: Dracarys
  • Mediainfo: Clic para Mostrar Datos Ver
  • Format                      : Matroska
    Format version              : Version 4
    File size                   : 25.4 GiB
    Duration                    : 2 h 10 min
    Overall bit rate mode       : Variable
    Overall bit rate            : 27.9 Mb/s
    Encoded date                : UTC 2019-09-06 01:04:05
    Writing application         : mkvmerge v25.0.0 ('Prog Noir') 64-bit
    Writing library             : libebml v1.3.6 + libmatroska v1.4.9

    Video
    ID                          : 1
    Format                      : AVC
    Format/Info                 : Advanced Video Codec
    Format profile              : High@L4.1
    Format settings             : CABAC / 4 Ref Frames
    Format settings, CABAC      : Yes
    Format settings, Reference  : 4 frames
    Codec ID                    : V_MPEG4/ISO/AVC
    Duration                    : 2 h 10 min
    Bit rate mode               : Variable
    Bit rate                    : 22.9 Mb/s
    Maximum bit rate            : 33.0 Mb/s
    Width                       : 1 920 pixels
    Height                      : 1 080 pixels
    Display aspect ratio        : 16:9
    Frame rate mode             : Constant
    Frame rate                  : 23.976 (24000/1001) FPS
    Color space                 : YUV
    Chroma subsampling          : 4:2:0
    Bit depth                   : 8 bits
    Scan type                   : Progressive
    Bits/(Pixel*Frame)          : 0.461
    Stream size                 : 20.8 GiB (82%)
    Language                    : English
    Default                     : No
    Forced                      : No

    Audio #1
    ID                          : 2
    Format                      : DTS
    Format/Info                 : Digital Theater Systems
    Codec ID                    : A_DTS
    Duration                    : 2 h 10 min
    Bit rate mode               : Constant
    Bit rate                    : 768 kb/s
    Channel(s)                  : 6 channels
    Channel layout              : C L R Ls Rs LFE
    Sampling rate               : 48.0 kHz
    Frame rate                  : 93.750 FPS (512 SPF)
    Bit depth                   : 24 bits
    Compression mode            : Lossy
    Stream size                 : 715 MiB (3%)
    Language                    : Spanish
    Default                     : Yes
    Forced                      : Yes

    Audio #2
    ID                          : 3
    Format                      : DTS XLL
    Format/Info                 : Digital Theater Systems
    Commercial name             : DTS-HD Master Audio
    Codec ID                    : A_DTS
    Duration                    : 2 h 10 min
    Bit rate mode               : Variable
    Bit rate                    : 4 204 kb/s
    Channel(s)                  : 6 channels
    Channel layout              : C L R Ls Rs LFE
    Sampling rate               : 48.0 kHz
    Frame rate                  : 93.750 FPS (512 SPF)
    Bit depth                   : 24 bits
    Compression mode            : Lossless
    Stream size                 : 3.82 GiB (15%)
    Language                    : English
    Default                     : No
    Forced                      : No

    Text #1
    ID                          : 4
    Format                      : UTF-8
    Codec ID                    : S_TEXT/UTF8
    Codec ID/Info               : UTF-8 Plain Text
    Duration                    : 2 h 2 min
    Bit rate                    : 1 b/s
    Count of elements           : 34
    Stream size                 : 1.35 KiB (0%)
    Language                    : Spanish
    Default                     : Yes
    Forced                      : Yes

    Text #2
    ID                          : 5
    Format                      : UTF-8
    Codec ID                    : S_TEXT/UTF8
    Codec ID/Info               : UTF-8 Plain Text
    Duration                    : 2 h 1 min
    Bit rate                    : 44 b/s
    Count of elements           : 1041
    Stream size                 : 40.0 KiB (0%)
    Language                    : Spanish
    Default                     : No
    Forced                      : No

    Text #3
    ID                          : 6
    Format                      : PGS
    Muxing mode                 : zlib
    Codec ID                    : S_HDMV/PGS
    Codec ID/Info               : Picture based subtitle format used on BDs/HD-DVDs
    Duration                    : 2 h 8 min
    Bit rate                    : 703 b/s
    Count of elements           : 100
    Stream size                 : 663 KiB (0%)
    Language                    : Spanish
    Default                     : No
    Forced                      : No

    Text #4
    ID                          : 7
    Format                      : PGS
    Muxing mode                 : zlib
    Codec ID                    : S_HDMV/PGS
    Codec ID/Info               : Picture based subtitle format used on BDs/HD-DVDs
    Duration                    : 2 h 8 min
    Bit rate                    : 24.2 kb/s
    Count of elements           : 2476
    Stream size                 : 22.2 MiB (0%)
    Language                    : Spanish
    Default                     : No
    Forced                      : No

    Menu
    00:00:00.000                : en:Chapter 01
    00:04:21.010                : en:Chapter 02
    00:10:19.118                : en:Chapter 03
    00:15:35.267                : en:Chapter 04
    00:19:18.574                : en:Chapter 05
    00:24:32.721                : en:Chapter 06
    00:30:23.404                : en:Chapter 07
    00:36:28.477                : en:Chapter 08
    00:43:43.954                : en:Chapter 09
    00:50:21.810                : en:Chapter 10
    00:56:24.964                : en:Chapter 11
    01:04:07.718                : en:Chapter 12
    01:09:28.080                : en:Chapter 13
    01:18:27.244                : en:Chapter 14
    01:24:54.964                : en:Chapter 15
    01:34:07.475                : en:Chapter 16
    01:41:02.347                : en:Chapter 17
    01:47:42.706                : en:Chapter 18
    01:56:52.880                : en:Chapter 19
    02:02:08.487                : en:Chapter 20

  • Peso: 25.4 GiB

Sinopsis

Desde que Dom y Brian destruyeron el imperio de un mafioso y se hicieron con cien millones de dólares, se encuentran en paradero desconocido; no pueden regresar a casa porque la ley los persigue. Entretanto, Hobbs ha seguido la pista por una docena de países a una banda de letales conductores mercenarios, cuyo cerebro cuenta con la inestimable ayuda de la sexy Letty, un viejo amor de Dom que éste daba por muerta. La única forma de detenerlos es enfrentarse a ellos en las calles, así que Hobbs le pide a Dom que reúna a su equipo en Londres. ¿Qué obtendrán a cambio? Un indulto para que todos puedan volver a casa con sus familias.

Ficha técnica

Video trailer de la película

Enlaces de descarga

Rip de Bluray

Descargar Rápido y Furioso 6 (2013) REMUX 1080p Latino – CMHDD


Aportes de DPeliculasHDmega la pass es:dpeliculashdmega.org Aportes de CinemaniaHD la pass es:cinemaniahdd.com
Guardado en : Acción , Crimen , Remux , Suspenso

Películas relacionadas

  • El Cuartel Secreto (2022) WEB-DL 4K UHD HDR Latino

    El Cuartel Secreto (2022) WEB-DL 4K UHD HDR Latino

    2022
    El Cuartel Secreto (2022) WEB-DL 4K UHD HDR Latino

    1h 44m 2022

    Descargar El Cuartel Secreto (2022) WEB-DL 4K UHD HDR Latino. Mientras pasan el rato después de la escuela,...

    Director: Henry Joost

    Género: 4K HDR

    Actores: Zeb Slone

  • El Cuartel Secreto (2022) WEB-DL 1080p Latino

    El Cuartel Secreto (2022) WEB-DL 1080p Latino

    2022
    El Cuartel Secreto (2022) WEB-DL 1080p Latino

    1h 44m 2022

    Descargar El Cuartel Secreto (2022) WEB-DL 1080p Latino. Mientras pasan el rato después de la escuela,...

    Director: Henry Joost

    Género: Acción

    Actores: Zeb Slone

  • Men in Black (1997) REMUX 4K HDR Latino – CMHDD

    Men in Black (1997) REMUX 4K HDR Latino – CMHDD

    1997
    Men in Black (1997) REMUX 4K HDR Latino – CMHDD

    1h 34m 1997

    Durante muchos años los extraterrestres han vivido en la Tierra, mezclados con los humanos, sin que...

    Director: Tyrone S. Walker

    Género: Acción

    Actores: Willie C. Carpenter

  • La Máquina infernal (2022) WEB-DL 1080p Latino

    La Máquina infernal (2022) WEB-DL 1080p Latino

    2022
    La Máquina infernal (2022) WEB-DL 1080p Latino

    1h 47m 2022

    Descargar La Máquina infernal (2022) WEB-DL 1080p Latino. Un fan obsesivo saca de su escondite al solitario...

    Director: Andrew Hunt

    Género: Suspenso

    Actores: Rocco Salata

  • Borrego: Sal Del Camino (2022) HD 1080p Latino

    Borrego: Sal Del Camino (2022) HD 1080p Latino

    2022
    Borrego: Sal Del Camino (2022) HD 1080p Latino

    1h 42m 2022

    Descargar Borrego: Sal Del Camino (2022) HD 1080p Latino. Una joven botánica se traslada a un pequeño...

    Director: Jesse Harris

    Género: Crimen

    Actores: Olivia Trujillo

descargar Rápido y Furioso 6 (2013) REMUX 1080p Latino – CMHDD Full 1080p 1080p gratis, Rápido y Furioso 6 (2013) REMUX 1080p Latino – CMHDD Full 1080p mega 1 link, Rápido y Furioso 6 (2013) REMUX 1080p Latino – CMHDD Full 1080p pelicula completa, descargar Rápido y Furioso 6 (2013) REMUX 1080p Latino – CMHDD Full 1080p gratis en mega.

Rápido y Furioso 6 (2013) REMUX 1080p Latino – CMHDD pelicula full hd, Rápido y Furioso 6 (2013) REMUX 1080p Latino – CMHDD mega latino, Rápido y Furioso 6 (2013) REMUX 1080p Latino – CMHDD 4k latino, Rápido y Furioso 6 (2013) REMUX 1080p Latino – CMHDD pelicula completa, Rápido y Furioso 6 (2013) REMUX 1080p Latino – CMHDD descargar gratis, descargar Rápido y Furioso 6 (2013) REMUX 1080p Latino – CMHDD pelicula latino, Rápido y Furioso 6 (2013) REMUX 1080p Latino – CMHDD 1 link mega, Rápido y Furioso 6 (2013) REMUX 1080p Latino – CMHDD 1 link google drive, Rápido y Furioso 6 (2013) REMUX 1080p Latino – CMHDD hd 1080p latino.