×

¿Problemas para descargar con Mozilla, EDGE? Deshabilita la opción "Abrir vinculos en una pestaña nueva" tal como lo muestra ésta imagen.

Rápido y Furioso 6 (2013) [Open Matte] WEB-DL 1080p Latino

324 vistas

Información de Rápido y Furioso 6 (2013) [Open Matte] WEB-DL 1080p Latino

Datos de la película

  • Calidad: 1080p
  • Audio: Español Latino AC3 2.0 WEB-DL - Ingles AC3 2.0 WEB-DL
  • Subtitulos: Español Latino SRT- FORZADOS SRT
  • Resolución: 1920x1080
  • Formato: MKV
  • Codec: H.264
  • Encoder: cinemaniahdd
  • Mediainfo: Clic para Mostrar Datos Ver
  • Rápido y Furioso 6 (2013) [Open Matte] WEB-DL 1080p Latino [CNMNHDD].mkv
    Format                      : Matroska
    Format version              : Version 4
    File size                   : 4.33 GiB
    Duration                    : 2 h 10 min
    Overall bit rate            : 4 769 kb/s
    Movie name                  : Rápido y Furioso 6 (2013) [Open Matte] - CinemaniaHDD.Net
    Encoded date                : UTC 2021-08-12 00:54:14
    Writing application         : mkvmerge v56.1.0 ('My Friend') 64-bit
    Writing library             : libebml v1.4.2 + libmatroska v1.6.4

    Video
    ID                          : 1
    Format                      : AVC
    Format/Info                 : Advanced Video Codec
    Format profile              : High@L4
    Format settings             : CABAC / 2 Ref Frames
    Format settings, CABAC      : Yes
    Format settings, Reference  : 2 frames
    Format settings, GOP        : M=1, N=60
    Codec ID                    : V_MPEG4/ISO/AVC
    Duration                    : 2 h 10 min
    Bit rate mode               : Constant
    Bit rate                    : 4 000 kb/s
    Width                       : 1 920 pixels
    Height                      : 1 080 pixels
    Display aspect ratio        : 16:9
    Frame rate mode             : Constant
    Frame rate                  : 23.976 (24000/1001) FPS
    Color space                 : YUV
    Chroma subsampling          : 4:2:0
    Bit depth                   : 8 bits
    Scan type                   : Progressive
    Bits/(Pixel*Frame)          : 0.080
    Stream size                 : 3.63 GiB (84%)
    Title                       : CinemaniaHDD
    Language                    : Spanish
    Default                     : Yes
    Forced                      : No
    Color range                 : Limited
    Color primaries             : BT.709
    Transfer characteristics    : BT.709
    Matrix coefficients         : BT.709

    Audio #1
    ID                          : 2
    Format                      : AC-3
    Format/Info                 : Audio Coding 3
    Commercial name             : Dolby Digital
    Codec ID                    : A_AC3
    Duration                    : 2 h 10 min
    Bit rate mode               : Constant
    Bit rate                    : 384 kb/s
    Channel(s)                  : 2 channels
    Channel layout              : L R
    Sampling rate               : 48.0 kHz
    Frame rate                  : 31.250 FPS (1536 SPF)
    Compression mode            : Lossy
    Stream size                 : 357 MiB (8%)
    Title                       : Español latino [CinemaniaHDD]
    Language                    : Spanish
    Service kind                : Complete Main
    Default                     : Yes
    Forced                      : No

    Audio #2
    ID                          : 3
    Format                      : AC-3
    Format/Info                 : Audio Coding 3
    Commercial name             : Dolby Digital
    Codec ID                    : A_AC3
    Duration                    : 2 h 10 min
    Bit rate mode               : Constant
    Bit rate                    : 384 kb/s
    Channel(s)                  : 2 channels
    Channel layout              : L R
    Sampling rate               : 48.0 kHz
    Frame rate                  : 31.250 FPS (1536 SPF)
    Compression mode            : Lossy
    Stream size                 : 357 MiB (8%)
    Title                       : Inglés [CinemaniaHDD]
    Language                    : English
    Service kind                : Complete Main
    Default                     : No
    Forced                      : No

    Text #1
    ID                          : 4
    Format                      : UTF-8
    Codec ID                    : S_TEXT/UTF8
    Codec ID/Info               : UTF-8 Plain Text
    Duration                    : 1 h 39 min
    Bit rate                    : 0 b/s
    Count of elements           : 16
    Stream size                 : 451 Bytes (0%)
    Title                       : Forzados [CinemaniaHDD]
    Language                    : Spanish
    Default                     : Yes
    Forced                      : Yes

    Text #2
    ID                          : 5
    Format                      : UTF-8
    Codec ID                    : S_TEXT/UTF8
    Codec ID/Info               : UTF-8 Plain Text
    Duration                    : 2 h 1 min
    Bit rate                    : 41 b/s
    Count of elements           : 1151
    Stream size                 : 37.0 KiB (0%)
    Title                       : Español latino [CinemaniaHDD]
    Language                    : Spanish
    Default                     : No
    Forced                      : No

     

  • Peso: 4.33 GiB

Sinopsis

Desde que Dom y Brian destruyeron el imperio de un mafioso y se hicieron con cien millones de dólares, se encuentran en paradero desconocido; no pueden regresar a casa porque la ley los persigue. Entretanto, Hobbs ha seguido la pista por una docena de países a una banda de letales conductores mercenarios, cuyo cerebro cuenta con la inestimable ayuda de la sexy Letty, un viejo amor de Dom que éste daba por muerta. La única forma de detenerlos es enfrentarse a ellos en las calles, así que Hobbs le pide a Dom que reúna a su equipo en Londres. ¿Qué obtendrán a cambio? Un indulto para que todos puedan volver a casa con sus familias.

Ficha técnica

Video trailer de la película

Enlaces de descarga

Rip de Bluray

Descargar Rápido y Furioso 6 (2013) [Open Matte] WEB-DL 1080p Latino




Aportes de DPeliculasHDmega la pass es:dpeliculashdmega.org Aportes de CinemaniaHD la pass es:cinemaniahdd.com
Guardado en : Acción , Crimen , OPEN MATTE , Suspenso

Películas relacionadas

  • Shotgun Wedding (2022) AMZN WEB-DL 1080p Latino

    Shotgun Wedding (2022) AMZN WEB-DL 1080p Latino

    2022
    Shotgun Wedding (2022) AMZN WEB-DL 1080p Latino

    1h 41m 2022

    Darcy y Tom reúnen a sus familias para la boda de destino definitiva, pero cuando toman como rehenes...

    Director: Jason Moore

    Género: Acción

    Actores: Steve Coulter

  • Mar de sangre (2022) WEB-DL 1080p Latino

    Mar de sangre (2022) WEB-DL 1080p Latino

    2022
    Mar de sangre (2022) WEB-DL 1080p Latino

    1h 27m 2022

    Descargar Mar de sangre (2022) WEB-DL 1080p Latino. Un grupo de amigos que disfrutan de un fin de semana...

    Director: James Nunn

    Género: Acción

    Actores: Thomas Michael Flynn

  • Noche sin paz (2022) PLACEBO Full HD 1080p Latino

    Noche sin paz (2022) PLACEBO Full HD 1080p Latino

    2022
    Noche sin paz (2022) PLACEBO Full HD 1080p Latino

    1h 41m 2022

    Descargar Noche sin paz (2022) PLACEBO Full HD 1080p Latino. Cuando un equipo de mercenarios irrumpe...

    Director: Tyshana Hobson

    Género: Acción

    Actores: Yoon Cha-Lee

  • Noche sin paz (2022) HD 1080p Latino

    Noche sin paz (2022) HD 1080p Latino

    2022
    Noche sin paz (2022) HD 1080p Latino

    1h 41m 2022

    Descargar Noche sin paz (2022) HD 1080p Latino. Cuando un equipo de mercenarios irrumpe en Nochebuena...

    Director: Tyshana Hobson

    Género: Acción

    Actores: Yoon Cha-Lee

descargar Rápido y Furioso 6 (2013) [Open Matte] WEB-DL 1080p Latino 1080p 1080p gratis, Rápido y Furioso 6 (2013) [Open Matte] WEB-DL 1080p Latino 1080p mega 1 link, Rápido y Furioso 6 (2013) [Open Matte] WEB-DL 1080p Latino 1080p pelicula completa, descargar Rápido y Furioso 6 (2013) [Open Matte] WEB-DL 1080p Latino 1080p gratis en mega.

Rápido y Furioso 6 (2013) [Open Matte] WEB-DL 1080p Latino pelicula full hd, Rápido y Furioso 6 (2013) [Open Matte] WEB-DL 1080p Latino mega latino, Rápido y Furioso 6 (2013) [Open Matte] WEB-DL 1080p Latino 4k latino, Rápido y Furioso 6 (2013) [Open Matte] WEB-DL 1080p Latino pelicula completa, Rápido y Furioso 6 (2013) [Open Matte] WEB-DL 1080p Latino descargar gratis, descargar Rápido y Furioso 6 (2013) [Open Matte] WEB-DL 1080p Latino pelicula latino, Rápido y Furioso 6 (2013) [Open Matte] WEB-DL 1080p Latino 1 link mega, Rápido y Furioso 6 (2013) [Open Matte] WEB-DL 1080p Latino 1 link google drive, Rápido y Furioso 6 (2013) [Open Matte] WEB-DL 1080p Latino hd 1080p latino.
Comentarios 0