×

¿Problemas para descargar con Mozilla, EDGE? Deshabilita la opción "Abrir vinculos en una pestaña nueva" tal como lo muestra ésta imagen.

Rápido y Furioso 6 (2013) HD 1080p Latino – CMHDD

344 vistas

Información de Rápido y Furioso 6 (2013) HD 1080p Latino – CMHDD

Datos de la película

  • Calidad: 1080p
  • Audio: Español Latino AC3 5.1 BLURAY - Ingles AC3 5.1 BLURAY
  • Subtitulos: Español Latino SRT- FORZADOS SRT
  • Resolución: 1920x816p
  • Formato: MKV
  • Codec: H.264
  • Encoder: Dracarys
  • Mediainfo: Clic para Mostrar Datos Ver
  • Format                      : Matroska
    Format version              : Version 4
    File size                   : 4.33 GiB
    Duration                    : 2 h 10 min
    Overall bit rate            : 4 761 kb/s
    Movie name                  : Rápido y Furioso 6 (2013) HD 1080p Latino - CMHDD
    Encoded date                : UTC 2020-05-24 07:28:48
    Writing application         : mkvmerge v46.0.0 ('No Deeper Escape') 64-bit
    Writing library             : libebml v1.3.10 + libmatroska v1.5.2

    Video
    ID                          : 1
    Format                      : AVC
    Format/Info                 : Advanced Video Codec
    Format profile              : High@L4.1
    Format settings             : CABAC / 5 Ref Frames
    Format settings, CABAC      : Yes
    Format settings, Reference  : 5 frames
    Codec ID                    : V_MPEG4/ISO/AVC
    Duration                    : 2 h 10 min
    Bit rate                    : 3 500 kb/s
    Width                       : 1 920 pixels
    Height                      : 816 pixels
    Display aspect ratio        : 2.35:1
    Frame rate mode             : Constant
    Frame rate                  : 23.976 (24000/1001) FPS
    Color space                 : YUV
    Chroma subsampling          : 4:2:0
    Bit depth                   : 8 bits
    Scan type                   : Progressive
    Bits/(Pixel*Frame)          : 0.093
    Stream size                 : 3.17 GiB (73%)
    Writing library             : x264 core 157 r2935 545de2f
    Encoding settings           : cabac=1 / ref=5 / deblock=1:0:0 / analyse=0x3:0x113 / me=hex / subme=8 / psy=1 / psy_rd=1.00:0.00 / mixed_ref=1 / me_range=16 / chroma_me=1 / trellis=2 / 8x8dct=1 / cqm=0 / deadzone=21,11 / fast_pskip=1 / chroma_qp_offset=-2 / threads=24 / lookahead_threads=4 / sliced_threads=0 / nr=0 / decimate=1 / interlaced=0 / bluray_compat=0 / constrained_intra=0 / bframes=3 / b_pyramid=2 / b_adapt=1 / b_bias=0 / direct=3 / weightb=1 / open_gop=0 / weightp=2 / keyint=240 / keyint_min=24 / scenecut=40 / intra_refresh=0 / rc_lookahead=50 / rc=abr / mbtree=1 / bitrate=3500 / ratetol=1.0 / qcomp=0.60 / qpmin=0 / qpmax=69 / qpstep=4 / vbv_maxrate=62500 / vbv_bufsize=78125 / nal_hrd=none / filler=0 / ip_ratio=1.40 / aq=1:1.00
    Default                     : Yes
    Forced                      : No
    Color range                 : Limited
    Color primaries             : BT.709
    Transfer characteristics    : BT.709
    Matrix coefficients         : BT.709

    Audio #1
    ID                          : 2
    Format                      : AC-3
    Format/Info                 : Audio Coding 3
    Commercial name             : Dolby Digital
    Codec ID                    : A_AC3
    Duration                    : 2 h 10 min
    Bit rate mode               : Constant
    Bit rate                    : 640 kb/s
    Channel(s)                  : 6 channels
    Channel layout              : L R C LFE Ls Rs
    Sampling rate               : 48.0 kHz
    Frame rate                  : 31.250 FPS (1536 SPF)
    Compression mode            : Lossy
    Delay relative to video     : -5 ms
    Stream size                 : 596 MiB (13%)
    Language                    : Spanish
    Service kind                : Complete Main
    Default                     : Yes
    Forced                      : No

    Audio #2
    ID                          : 3
    Format                      : AC-3
    Format/Info                 : Audio Coding 3
    Commercial name             : Dolby Digital
    Codec ID                    : A_AC3
    Duration                    : 2 h 10 min
    Bit rate mode               : Constant
    Bit rate                    : 640 kb/s
    Channel(s)                  : 6 channels
    Channel layout              : L R C LFE Ls Rs
    Sampling rate               : 48.0 kHz
    Frame rate                  : 31.250 FPS (1536 SPF)
    Compression mode            : Lossy
    Delay relative to video     : -5 ms
    Stream size                 : 596 MiB (13%)
    Language                    : English
    Service kind                : Complete Main
    Default                     : No
    Forced                      : No

    Text #1
    ID                          : 4
    Format                      : UTF-8
    Codec ID                    : S_TEXT/UTF8
    Codec ID/Info               : UTF-8 Plain Text
    Duration                    : 2 h 2 min
    Bit rate                    : 1 b/s
    Count of elements           : 34
    Stream size                 : 1.35 KiB (0%)
    Title                       : SRT-Forzados
    Language                    : Spanish
    Default                     : Yes
    Forced                      : No

    Text #2
    ID                          : 5
    Format                      : UTF-8
    Codec ID                    : S_TEXT/UTF8
    Codec ID/Info               : UTF-8 Plain Text
    Duration                    : 2 h 1 min
    Bit rate                    : 44 b/s
    Count of elements           : 1041
    Stream size                 : 40.0 KiB (0%)
    Title                       : SRT-Completos
    Language                    : Spanish
    Default                     : No
    Forced                      : No

    Menu
    00:00:00.000                : :Chapter 1
    00:04:21.011                : :Chapter 2
    00:10:19.119                : :Chapter 3
    00:15:35.268                : :Chapter 4
    00:19:18.658                : :Chapter 5
    00:24:32.846                : :Chapter 6
    00:30:23.405                : :Chapter 7
    00:36:28.478                : :Chapter 8
    00:43:43.955                : :Chapter 9
    00:50:21.894                : :Chapter 10
    00:56:24.965                : :Chapter 11
    01:04:07.719                : :Chapter 12
    01:09:28.081                : :Chapter 13
    01:18:27.369                : :Chapter 14
    01:24:54.965                : :Chapter 15
    01:34:07.600                : :Chapter 16
    01:41:02.348                : :Chapter 17
    01:47:42.831                : :Chapter 18
    01:56:52.881                : :Chapter 19
    02:02:08.488                : :Chapter 20

  • Peso: 4.33 GiB

Sinopsis

Desde que Dom y Brian destruyeron el imperio de un mafioso y se hicieron con cien millones de dólares, se encuentran en paradero desconocido; no pueden regresar a casa porque la ley los persigue. Entretanto, Hobbs ha seguido la pista por una docena de países a una banda de letales conductores mercenarios, cuyo cerebro cuenta con la inestimable ayuda de la sexy Letty, un viejo amor de Dom que éste daba por muerta. La única forma de detenerlos es enfrentarse a ellos en las calles, así que Hobbs le pide a Dom que reúna a su equipo en Londres. ¿Qué obtendrán a cambio? Un indulto para que todos puedan volver a casa con sus familias.

Ficha técnica

Video trailer de la película

Enlaces de descarga

Rip de Bluray

Descargar Rápido y Furioso 6 (2013) HD 1080p Latino – CMHDD




Aportes de DPeliculasHDmega la pass es:dpeliculashdmega.org Aportes de CinemaniaHD la pass es:cinemaniahdd.com
Guardado en : Acción , Crimen , HD 1080p , Suspenso

Películas relacionadas

descargar Rápido y Furioso 6 (2013) HD 1080p Latino – CMHDD 1080p 1080p gratis, Rápido y Furioso 6 (2013) HD 1080p Latino – CMHDD 1080p mega 1 link, Rápido y Furioso 6 (2013) HD 1080p Latino – CMHDD 1080p pelicula completa, descargar Rápido y Furioso 6 (2013) HD 1080p Latino – CMHDD 1080p gratis en mega.

Rápido y Furioso 6 (2013) HD 1080p Latino – CMHDD pelicula full hd, Rápido y Furioso 6 (2013) HD 1080p Latino – CMHDD mega latino, Rápido y Furioso 6 (2013) HD 1080p Latino – CMHDD 4k latino, Rápido y Furioso 6 (2013) HD 1080p Latino – CMHDD pelicula completa, Rápido y Furioso 6 (2013) HD 1080p Latino – CMHDD descargar gratis, descargar Rápido y Furioso 6 (2013) HD 1080p Latino – CMHDD pelicula latino, Rápido y Furioso 6 (2013) HD 1080p Latino – CMHDD 1 link mega, Rápido y Furioso 6 (2013) HD 1080p Latino – CMHDD 1 link google drive, Rápido y Furioso 6 (2013) HD 1080p Latino – CMHDD hd 1080p latino.
Comentarios 0