×

¿Problemas para descargar con Mozilla, EDGE? Deshabilita la opción "Abrir vinculos en una pestaña nueva" tal como lo muestra ésta imagen.

Rápido y Furioso 5 (2011) REMUX 1080p Latino – CMHDD

350 vistas

Información de Rápido y Furioso 5 (2011) REMUX 1080p Latino – CMHDD

Datos de la película

  • Calidad: Full 1080p
  • Audio: Español Latino DTS 5.1 BLURAY - Ingles DTS 5.1 BLURAY
  • Subtitulos: Español Latino SRT- FORZADOS SRT
  • Resolución: 1920x1080p
  • Formato: MKV
  • Codec: H.264
  • Encoder: Dracarys
  • Mediainfo: Clic para Mostrar Datos Ver
  • Format                      : Matroska
    Format version              : Version 4
    File size                   : 24.0 GiB
    Duration                    : 2 h 11 min
    Overall bit rate mode       : Variable
    Overall bit rate            : 26.1 Mb/s
    Encoded date                : UTC 2019-09-06 00:26:59
    Writing application         : mkvmerge v25.0.0 ('Prog Noir') 64-bit
    Writing library             : libebml v1.3.6 + libmatroska v1.4.9

    Video
    ID                          : 1
    Format                      : AVC
    Format/Info                 : Advanced Video Codec
    Format profile              : High@L4.1
    Format settings             : CABAC / 4 Ref Frames
    Format settings, CABAC      : Yes
    Format settings, Reference  : 4 frames
    Codec ID                    : V_MPEG4/ISO/AVC
    Duration                    : 2 h 11 min
    Bit rate mode               : Variable
    Bit rate                    : 21.7 Mb/s
    Maximum bit rate            : 35.0 Mb/s
    Width                       : 1 920 pixels
    Height                      : 1 080 pixels
    Display aspect ratio        : 16:9
    Frame rate mode             : Constant
    Frame rate                  : 23.976 (24000/1001) FPS
    Color space                 : YUV
    Chroma subsampling          : 4:2:0
    Bit depth                   : 8 bits
    Scan type                   : Progressive
    Bits/(Pixel*Frame)          : 0.436
    Stream size                 : 19.9 GiB (83%)
    Language                    : English
    Default                     : No
    Forced                      : No
    Color range                 : Limited
    Color primaries             : BT.709
    Transfer characteristics    : BT.709
    Matrix coefficients         : BT.709

    Audio #1
    ID                          : 2
    Format                      : DTS
    Format/Info                 : Digital Theater Systems
    Codec ID                    : A_DTS
    Duration                    : 2 h 11 min
    Bit rate mode               : Constant
    Bit rate                    : 768 kb/s
    Channel(s)                  : 6 channels
    Channel layout              : C L R Ls Rs LFE
    Sampling rate               : 48.0 kHz
    Frame rate                  : 93.750 FPS (512 SPF)
    Bit depth                   : 24 bits
    Compression mode            : Lossy
    Stream size                 : 723 MiB (3%)
    Language                    : Spanish
    Default                     : Yes
    Forced                      : Yes

    Audio #2
    ID                          : 3
    Format                      : DTS XLL
    Format/Info                 : Digital Theater Systems
    Commercial name             : DTS-HD Master Audio
    Codec ID                    : A_DTS
    Duration                    : 2 h 11 min
    Bit rate mode               : Variable
    Bit rate                    : 3 697 kb/s
    Channel(s)                  : 6 channels
    Channel layout              : C L R Ls Rs LFE
    Sampling rate               : 48.0 kHz
    Frame rate                  : 93.750 FPS (512 SPF)
    Bit depth                   : 24 bits
    Compression mode            : Lossless
    Stream size                 : 3.40 GiB (14%)
    Language                    : English
    Default                     : No
    Forced                      : No

    Text #1
    ID                          : 4
    Format                      : UTF-8
    Codec ID                    : S_TEXT/UTF8
    Codec ID/Info               : UTF-8 Plain Text
    Duration                    : 2 h 1 min
    Bit rate                    : 2 b/s
    Count of elements           : 100
    Stream size                 : 2.55 KiB (0%)
    Language                    : Spanish
    Default                     : Yes
    Forced                      : Yes

    Text #2
    ID                          : 5
    Format                      : UTF-8
    Codec ID                    : S_TEXT/UTF8
    Codec ID/Info               : UTF-8 Plain Text
    Duration                    : 2 h 5 min
    Bit rate                    : 36 b/s
    Count of elements           : 1272
    Stream size                 : 33.5 KiB (0%)
    Language                    : Spanish
    Default                     : No
    Forced                      : No

    Text #3
    ID                          : 6
    Format                      : PGS
    Muxing mode                 : zlib
    Codec ID                    : S_HDMV/PGS
    Codec ID/Info               : Picture based subtitle format used on BDs/HD-DVDs
    Duration                    : 2 h 1 min
    Bit rate                    : 1 903 b/s
    Count of elements           : 212
    Stream size                 : 1.65 MiB (0%)
    Language                    : Spanish
    Default                     : No
    Forced                      : No

    Text #4
    ID                          : 7
    Format                      : PGS
    Muxing mode                 : zlib
    Codec ID                    : S_HDMV/PGS
    Codec ID/Info               : Picture based subtitle format used on BDs/HD-DVDs
    Duration                    : 2 h 5 min
    Bit rate                    : 23.2 kb/s
    Count of elements           : 2543
    Stream size                 : 20.7 MiB (0%)
    Language                    : Spanish
    Default                     : No
    Forced                      : No

    Menu
    00:00:00.000                : en:Chapter 01
    00:07:45.673                : en:Chapter 02
    00:17:29.423                : en:Chapter 03
    00:23:01.797                : en:Chapter 04
    00:28:21.533                : en:Chapter 05
    00:35:05.311                : en:Chapter 06
    00:40:55.995                : en:Chapter 07
    00:48:51.261                : en:Chapter 08
    00:55:29.993                : en:Chapter 09
    01:04:07.552                : en:Chapter 10
    01:11:42.256                : en:Chapter 11
    01:19:23.467                : en:Chapter 12
    01:23:33.800                : en:Chapter 13
    01:28:56.331                : en:Chapter 14
    01:32:57.488                : en:Chapter 15
    01:40:27.104                : en:Chapter 16
    01:48:14.571                : en:Chapter 17
    01:56:03.915                : en:Chapter 18
    02:00:29.013                : en:Chapter 19
    02:04:38.304                : en:Chapter 20

  • Peso: 24.0 GiB

Sinopsis

Desde que Brian O’Conner (Paul Walker) y Mia Toretto (Jordana Brewster) sacaron a Dom Toretto (Vin Diesel) de la cárcel, se han visto obligados a huir y cruzar muchas fronteras para evitar a la policía. Atrapados en Río de Janeiro, una vez más tienen que darse a la fuga si quieren conservar la libertad. Pero los tres saben muy bien que la única posibilidad que tienen de poner fin a esta situación es enfrentarse de una vez por todas al empresario corrupto que quiere verlos muertos. Pero éste no es el único que les sigue la pista.

Ficha técnica

Video trailer de la película

Enlaces de descarga

Rip de Bluray

Descargar Rápido y Furioso 5 (2011) REMUX 1080p Latino – CMHDD


Aportes de DPeliculasHDmega la pass es:dpeliculashdmega.org Aportes de CinemaniaHD la pass es:cinemaniahdd.com
Guardado en : Acción , Crimen , Remux , Suspenso

Películas relacionadas

  • Hot Summer Nights (2017) 4K-SDR WEB-DL 2160p Latino

    Hot Summer Nights (2017) 4K-SDR WEB-DL 2160p Latino

    2018
    Hot Summer Nights (2017) 4K-SDR WEB-DL 2160p Latino

    1h 47m 2018

    Daniel es un tímido adolescente que comienza a vender marihuana, entrando en un mundo tentador pero...

    Director: Stephen W. Moore

    Género: 4K HDR

    Actores: Zack Shires

  • Hot Summer Nights (2017) AMZN WEB-DL 1080p Latino

    Hot Summer Nights (2017) AMZN WEB-DL 1080p Latino

    2018
    Hot Summer Nights (2017) AMZN WEB-DL 1080p Latino

    1h 47m 2018

    Daniel es un tímido adolescente que comienza a vender marihuana, entrando en un mundo tentador pero...

    Director: Stephen W. Moore

    Género: Comedia

    Actores: Zack Shires

  • Wire Room (2022) HD 1080p Latino

    Wire Room (2022) HD 1080p Latino

    2022
    Wire Room (2022) HD 1080p Latino

    1h 37m 2022

    Descargar Wire Room (2022) HD 1080p Latino. Mientras está de servicio en la sala de cables, un agente...

    Director: Matt Eskandari

    Género: Acción

    Actores: Texas Battle

  • Wire Room (2022) PLACEBO Full HD 1080p Latino

    Wire Room (2022) PLACEBO Full HD 1080p Latino

    2022
    Wire Room (2022) PLACEBO Full HD 1080p Latino

    1h 37m 2022

    Descargar Wire Room (2022) PLACEBO Full HD 1080p Latino. Mientras está de servicio en la sala de cables,...

    Director: Matt Eskandari

    Género: Acción

    Actores: Texas Battle

  • Wire Room (2022) REMUX 1080p Latino

    Wire Room (2022) REMUX 1080p Latino

    2022
    Wire Room (2022) REMUX 1080p Latino

    1h 37m 2022

    Descargar Wire Room (2022) REMUX 1080p Latino. Mientras está de servicio en la sala de cables, un agente...

    Director: Matt Eskandari

    Género: Acción

    Actores: Texas Battle

descargar Rápido y Furioso 5 (2011) REMUX 1080p Latino – CMHDD Full 1080p 1080p gratis, Rápido y Furioso 5 (2011) REMUX 1080p Latino – CMHDD Full 1080p mega 1 link, Rápido y Furioso 5 (2011) REMUX 1080p Latino – CMHDD Full 1080p pelicula completa, descargar Rápido y Furioso 5 (2011) REMUX 1080p Latino – CMHDD Full 1080p gratis en mega.

Rápido y Furioso 5 (2011) REMUX 1080p Latino – CMHDD pelicula full hd, Rápido y Furioso 5 (2011) REMUX 1080p Latino – CMHDD mega latino, Rápido y Furioso 5 (2011) REMUX 1080p Latino – CMHDD 4k latino, Rápido y Furioso 5 (2011) REMUX 1080p Latino – CMHDD pelicula completa, Rápido y Furioso 5 (2011) REMUX 1080p Latino – CMHDD descargar gratis, descargar Rápido y Furioso 5 (2011) REMUX 1080p Latino – CMHDD pelicula latino, Rápido y Furioso 5 (2011) REMUX 1080p Latino – CMHDD 1 link mega, Rápido y Furioso 5 (2011) REMUX 1080p Latino – CMHDD 1 link google drive, Rápido y Furioso 5 (2011) REMUX 1080p Latino – CMHDD hd 1080p latino.