×

¿Problemas para descargar con Mozilla, EDGE? Deshabilita la opción "Abrir vinculos en una pestaña nueva" tal como lo muestra ésta imagen.

Rápido y Furioso 4 (2009) [Open Matte] WEB-DL 1080p Latino

227 vistas

Información de Rápido y Furioso 4 (2009) [Open Matte] WEB-DL 1080p Latino

Datos de la película

  • Calidad: 1080p
  • Audio: Español Latino AC3 5.1 WEB-DL - Ingles AC3 5.1 WEB-DL
  • Subtitulos: Español Latino SRT- FORZADOS SRT
  • Resolución: 1920x1080
  • Formato: MKV
  • Codec: H.264
  • Encoder: cinemaniahdd
  • Mediainfo: Clic para Mostrar Datos Ver
  • Rápido y Furioso 4 (2009) [Open Matte] WEB-DL 1080p Latino [CNMNHDD].mkv
    Format                      : Matroska
    Format version              : Version 4
    File size                   : 10.2 GiB
    Duration                    : 1 h 47 min
    Overall bit rate mode       : Variable
    Overall bit rate            : 13.6 Mb/s
    Movie name                  : Rápido y Furioso 4 (2009) [Open Matte] - CinemaniaHDD.Net
    Encoded date                : UTC 2021-08-11 01:10:00
    Writing application         : mkvmerge v56.1.0 ('My Friend') 64-bit
    Writing library             : libebml v1.4.2 + libmatroska v1.6.4

    Video
    ID                          : 1
    Format                      : AVC
    Format/Info                 : Advanced Video Codec
    Format profile              : High@L4
    Format settings             : CABAC / 4 Ref Frames
    Format settings, CABAC      : Yes
    Format settings, Reference  : 4 frames
    Codec ID                    : V_MPEG4/ISO/AVC
    Duration                    : 1 h 46 min
    Bit rate mode               : Variable
    Bit rate                    : 12.0 Mb/s
    Maximum bit rate            : 15.0 Mb/s
    Width                       : 1 920 pixels
    Height                      : 1 080 pixels
    Display aspect ratio        : 16:9
    Frame rate mode             : Constant
    Frame rate                  : 23.976 (24000/1001) FPS
    Color space                 : YUV
    Chroma subsampling          : 4:2:0
    Bit depth                   : 8 bits
    Scan type                   : Progressive
    Bits/(Pixel*Frame)          : 0.241
    Stream size                 : 8.96 GiB (88%)
    Title                       : CinemaniaHDD
    Language                    : English
    Default                     : Yes
    Forced                      : No
    Color range                 : Limited
    Color primaries             : BT.709
    Transfer characteristics    : BT.709
    Matrix coefficients         : BT.709

    Audio #1
    ID                          : 2
    Format                      : AC-3
    Format/Info                 : Audio Coding 3
    Commercial name             : Dolby Digital
    Codec ID                    : A_AC3
    Duration                    : 1 h 46 min
    Bit rate mode               : Constant
    Bit rate                    : 384 kb/s
    Channel(s)                  : 2 channels
    Channel layout              : L R
    Sampling rate               : 48.0 kHz
    Frame rate                  : 31.250 FPS (1536 SPF)
    Compression mode            : Lossy
    Stream size                 : 294 MiB (3%)
    Title                       : Español latino / 2.0 [CinemaniaHDD]
    Language                    : Spanish
    Service kind                : Complete Main
    Default                     : Yes
    Forced                      : No

    Audio #2
    ID                          : 3
    Format                      : AC-3
    Format/Info                 : Audio Coding 3
    Commercial name             : Dolby Digital
    Codec ID                    : A_AC3
    Duration                    : 1 h 46 min
    Bit rate mode               : Constant
    Bit rate                    : 640 kb/s
    Channel(s)                  : 6 channels
    Channel layout              : L R C LFE Ls Rs
    Sampling rate               : 48.0 kHz
    Frame rate                  : 31.250 FPS (1536 SPF)
    Compression mode            : Lossy
    Delay relative to video     : 10 s 35 ms
    Stream size                 : 489 MiB (5%)
    Title                       : Español latino / 5.1 [CinemaniaHDD]
    Language                    : Spanish
    Service kind                : Complete Main
    Default                     : No
    Forced                      : No

    Audio #3
    ID                          : 4
    Format                      : AC-3
    Format/Info                 : Audio Coding 3
    Commercial name             : Dolby Digital
    Codec ID                    : A_AC3
    Duration                    : 1 h 46 min
    Bit rate mode               : Constant
    Bit rate                    : 640 kb/s
    Channel(s)                  : 6 channels
    Channel layout              : L R C LFE Ls Rs
    Sampling rate               : 48.0 kHz
    Frame rate                  : 31.250 FPS (1536 SPF)
    Compression mode            : Lossy
    Delay relative to video     : 9 s 19 ms
    Stream size                 : 489 MiB (5%)
    Title                       : Inglés / 5.1 [CinemaniaHDD]
    Language                    : English
    Service kind                : Complete Main
    Default                     : No
    Forced                      : No

    Text #1
    ID                          : 5
    Format                      : UTF-8
    Codec ID                    : S_TEXT/UTF8
    Codec ID/Info               : UTF-8 Plain Text
    Duration                    : 1 h 33 min
    Bit rate                    : 0 b/s
    Count of elements           : 17
    Stream size                 : 451 Bytes (0%)
    Title                       : Forzados [CinemaniaHDD]
    Language                    : Spanish
    Default                     : Yes
    Forced                      : Yes

    Text #2
    ID                          : 6
    Format                      : UTF-8
    Codec ID                    : S_TEXT/UTF8
    Codec ID/Info               : UTF-8 Plain Text
    Duration                    : 1 h 40 min
    Bit rate                    : 30 b/s
    Count of elements           : 803
    Stream size                 : 22.5 KiB (0%)
    Title                       : Español latino [CinemaniaHDD]
    Language                    : Spanish
    Default                     : No
    Forced                      : No

    Menu
    00:00:00.000                : HBO Logo
    00:00:11.470                : Game Time
    00:07:35.621                : Ride Or Die
    00:11:55.947                : Foot Pursuit
    00:16:56.139                : Coming Home
    00:24:33.471                : Back On The Scene
    00:29:14.835                : Tuned-Up
    00:34:14.676                : A Real Driver
    00:37:40.173                : Muscle Beats Import
    00:46:16.730                : Boss Os Bosses
    00:53:46.763                : Along For The Ride
    00:58:24.540                : High-Performance
    01:04:58.517                : Spotted Together
    01:07:39.260                : Food, Family, Friendship
    01:12:11.157                : Just Business
    01:14:55.904                : Primary Target
    01:20:45.545                : Juisdiction Ends
    01:25:12.645                : Ain't Forgiven
    01:29:18.766                : Run For The Border
    01:36:04.337                : Steet Pardon
    01:39:34.172                : End Titles

     

  • Peso: 10.2 GiB

Sinopsis

El fugitivo y ex preso Dom Toretto y el detective Brian O’Conner vuelven a encontrarse en Los Ángeles y siguen llevándose igual de mal. Sin embargo, obligados a enfrentarse a un enemigo común, no les queda más remedio que unir sus fuerzas si quieren vencerle. Después del atraco a un convoy, los dos protagonistas descubrirán que si quieren vengarse, deberán llegar al límite de sus posibilidades al volante… Nueva entrega de la serie que volvió a contar con su -ahora ya famosos- 4 protagonistas originales, circustancia que resaltan en su original leyenda: «Nuevo modelo. Piezas originales».

Ficha técnica

Video trailer de la película

Enlaces de descarga

Rip de Bluray

Descargar Rápido y Furioso 4 (2009) [Open Matte] WEB-DL 1080p Latino




Aportes de DPeliculasHDmega la pass es:dpeliculashdmega.org Aportes de CinemaniaHD la pass es:cinemaniahdd.com
Guardado en : Acción , Crimen , Drama , OPEN MATTE , Suspenso

Películas relacionadas

  • El Ultimo Juego (2021) WEB-DL 1080p Latino

    El Ultimo Juego (2021) WEB-DL 1080p Latino

    2021
    El Ultimo Juego (2021) WEB-DL 1080p Latino

    1h 21m 2021

    Descargar El Ultimo Juego (2021) WEB-DL 1080p Latino. 6 extraños se despiertan dentro de una habitación...

    Director: John David Moffat IV

    Género: Drama

    Actores: Yasmin Irvine

  • DC Liga De Supermascotas (2022) HD 1080p Latino

    DC Liga De Supermascotas (2022) HD 1080p Latino

    2022
    DC Liga De Supermascotas (2022) HD 1080p Latino

    1h 45m 2022

    Descargar DC Liga De Supermascotas (2022) HD 1080p Latino. Krypto el Superperro y Superman son amigos...

    Director: Sam Levine

    Género: Acción

    Actores: Yvette Nicole Brown

  • Invitacion Al Infierno (2022) MA WEB-DL 1080p Latino

    Invitacion Al Infierno (2022) MA WEB-DL 1080p Latino

    2022
    Invitacion Al Infierno (2022) MA WEB-DL 1080p Latino

    1h 45m 2022

    Descargar Invitacion Al Infierno (2022) MA WEB-DL 1080p Latino. Tras la muerte de su madre y quedarse...

    Director: Jessica M. Thompson

    Género: Suspenso

    Actores: Virág Bárány

descargar Rápido y Furioso 4 (2009) [Open Matte] WEB-DL 1080p Latino 1080p 1080p gratis, Rápido y Furioso 4 (2009) [Open Matte] WEB-DL 1080p Latino 1080p mega 1 link, Rápido y Furioso 4 (2009) [Open Matte] WEB-DL 1080p Latino 1080p pelicula completa, descargar Rápido y Furioso 4 (2009) [Open Matte] WEB-DL 1080p Latino 1080p gratis en mega.

Rápido y Furioso 4 (2009) [Open Matte] WEB-DL 1080p Latino pelicula full hd, Rápido y Furioso 4 (2009) [Open Matte] WEB-DL 1080p Latino mega latino, Rápido y Furioso 4 (2009) [Open Matte] WEB-DL 1080p Latino 4k latino, Rápido y Furioso 4 (2009) [Open Matte] WEB-DL 1080p Latino pelicula completa, Rápido y Furioso 4 (2009) [Open Matte] WEB-DL 1080p Latino descargar gratis, descargar Rápido y Furioso 4 (2009) [Open Matte] WEB-DL 1080p Latino pelicula latino, Rápido y Furioso 4 (2009) [Open Matte] WEB-DL 1080p Latino 1 link mega, Rápido y Furioso 4 (2009) [Open Matte] WEB-DL 1080p Latino 1 link google drive, Rápido y Furioso 4 (2009) [Open Matte] WEB-DL 1080p Latino hd 1080p latino.
Comentarios 0