×

¿Problemas para descargar con Mozilla, EDGE? Deshabilita la opción "Abrir vinculos en una pestaña nueva" tal como lo muestra ésta imagen.

Rápido y Furioso 3 (2006) REMUX 1080p Latino – CMHDD

373 vistas

Información de Rápido y Furioso 3 (2006) REMUX 1080p Latino – CMHDD

Datos de la película

  • Calidad: Full 1080p
  • Audio: Español Latino DTS 5.1 BLURAY - Ingles DTS 5.1 BLURAY
  • Subtitulos: Español Latino SRT- FORZADOS SRT
  • Resolución: 1920x1080p
  • Formato: MKV
  • Codec: H.264
  • Encoder: Dracarys
  • Mediainfo: Clic para Mostrar Datos Ver
  • Format                      : Matroska
    Format version              : Version 4
    File size                   : 20.1 GiB
    Duration                    : 1 h 44 min
    Overall bit rate mode       : Variable
    Overall bit rate            : 27.6 Mb/s
    Encoded date                : UTC 2019-09-05 18:36:58
    Writing application         : mkvmerge v25.0.0 ('Prog Noir') 64-bit
    Writing library             : libebml v1.3.6 + libmatroska v1.4.9

    Video
    ID                          : 1
    Format                      : AVC
    Format/Info                 : Advanced Video Codec
    Format profile              : High@L4.1
    Format settings             : CABAC / 4 Ref Frames
    Format settings, CABAC      : Yes
    Format settings, Reference  : 4 frames
    Codec ID                    : V_MPEG4/ISO/AVC
    Duration                    : 1 h 44 min
    Bit rate mode               : Variable
    Bit rate                    : 22.4 Mb/s
    Maximum bit rate            : 28.5 Mb/s
    Width                       : 1 920 pixels
    Height                      : 1 080 pixels
    Display aspect ratio        : 16:9
    Frame rate mode             : Constant
    Frame rate                  : 23.976 (24000/1001) FPS
    Color space                 : YUV
    Chroma subsampling          : 4:2:0
    Bit depth                   : 8 bits
    Scan type                   : Progressive
    Bits/(Pixel*Frame)          : 0.450
    Stream size                 : 16.3 GiB (81%)
    Language                    : English
    Default                     : No
    Forced                      : No
    Color range                 : Limited
    Color primaries             : BT.709
    Transfer characteristics    : BT.709
    Matrix coefficients         : BT.709

    Audio #1
    ID                          : 2
    Format                      : DTS
    Format/Info                 : Digital Theater Systems
    Codec ID                    : A_DTS
    Duration                    : 1 h 44 min
    Bit rate mode               : Constant
    Bit rate                    : 768 kb/s
    Channel(s)                  : 6 channels
    Channel layout              : C L R Ls Rs LFE
    Sampling rate               : 48.0 kHz
    Frame rate                  : 93.750 FPS (512 SPF)
    Bit depth                   : 24 bits
    Compression mode            : Lossy
    Stream size                 : 573 MiB (3%)
    Language                    : Spanish
    Default                     : Yes
    Forced                      : Yes

    Audio #2
    ID                          : 3
    Format                      : DTS XLL
    Format/Info                 : Digital Theater Systems
    Commercial name             : DTS-HD Master Audio
    Codec ID                    : A_DTS
    Duration                    : 1 h 44 min
    Bit rate mode               : Variable
    Bit rate                    : 4 458 kb/s
    Channel(s)                  : 6 channels
    Channel layout              : C L R Ls Rs LFE
    Sampling rate               : 48.0 kHz
    Frame rate                  : 93.750 FPS (512 SPF)
    Bit depth                   : 24 bits
    Compression mode            : Lossless
    Stream size                 : 3.25 GiB (16%)
    Language                    : English
    Default                     : No
    Forced                      : No

    Text #1
    ID                          : 4
    Format                      : UTF-8
    Codec ID                    : S_TEXT/UTF8
    Codec ID/Info               : UTF-8 Plain Text
    Duration                    : 1 h 25 min
    Bit rate                    : 1 b/s
    Count of elements           : 50
    Stream size                 : 1.23 KiB (0%)
    Language                    : Spanish
    Default                     : Yes
    Forced                      : Yes

    Text #2
    ID                          : 5
    Format                      : UTF-8
    Codec ID                    : S_TEXT/UTF8
    Codec ID/Info               : UTF-8 Plain Text
    Duration                    : 1 h 34 min
    Bit rate                    : 24 b/s
    Count of elements           : 629
    Stream size                 : 16.7 KiB (0%)
    Language                    : Spanish
    Default                     : No
    Forced                      : No

    Text #3
    ID                          : 6
    Format                      : PGS
    Muxing mode                 : zlib
    Codec ID                    : S_HDMV/PGS
    Codec ID/Info               : Picture based subtitle format used on BDs/HD-DVDs
    Duration                    : 1 h 32 min
    Bit rate                    : 1 270 b/s
    Count of elements           : 108
    Stream size                 : 862 KiB (0%)
    Language                    : Spanish
    Default                     : No
    Forced                      : No

    Text #4
    ID                          : 7
    Format                      : PGS
    Muxing mode                 : zlib
    Codec ID                    : S_HDMV/PGS
    Codec ID/Info               : Picture based subtitle format used on BDs/HD-DVDs
    Duration                    : 1 h 34 min
    Bit rate                    : 15.3 kb/s
    Count of elements           : 1266
    Stream size                 : 10.4 MiB (0%)
    Language                    : Spanish
    Default                     : No
    Forced                      : No

    Menu
    00:00:00.000                : en:Chapter 01
    00:03:04.434                : en:Chapter 02
    00:09:43.499                : en:Chapter 03
    00:12:10.688                : en:Chapter 04
    00:16:15.391                : en:Chapter 05
    00:20:16.840                : en:Chapter 06
    00:26:36.469                : en:Chapter 07
    00:32:56.849                : en:Chapter 08
    00:41:14.305                : en:Chapter 09
    00:46:34.792                : en:Chapter 10
    00:52:55.172                : en:Chapter 11
    00:58:20.038                : en:Chapter 12
    01:01:46.160                : en:Chapter 13
    01:05:50.404                : en:Chapter 14
    01:08:56.006                : en:Chapter 15
    01:16:14.528                : en:Chapter 16
    01:20:31.326                : en:Chapter 17
    01:26:53.166                : en:Chapter 18
    01:34:59.860                : en:Chapter 19
    01:37:33.764                : en:Chapter 20

  • Peso: 20.1 GiB

Sinopsis

Shaun Boswell es un chico que no acaba de encajar en ningún grupo. Su única conexión con el mundo de indiferencia que le rodea es a través de las carreras ilegales, lo que no le ha convertido en el chico favorito de la policía. Cuando amenazan con encarcelarle, le mandan fuera del país a pasar una temporada con su tío, un militar destinado en Japón. En el país donde nacieron la mayoría de los coches modificados, las simples carreras en la calle principal han sido sustituidas por el último reto automovilístico que desafía la gravedad, las carreras de «drift» (arrastre), una peligrosa mezcla de velocidad en pistas con curvas muy cerradas y en zigzag. En su primera incursión en el salvaje mundo de las carreras de «drift», Shaun acepta ingenuamente conducir un D.K, el Rey del Drift, que pertenece a los Yakuza, la mafia japonesa. Para pagar su deuda, no tiene más remedio que codearse con el hampa de Tokio y jugarse la vida.

Ficha técnica

Video trailer de la película

Enlaces de descarga

Rip de Bluray

Descargar Rápido y Furioso 3 (2006) REMUX 1080p Latino – CMHDD


Aportes de DPeliculasHDmega la pass es:dpeliculashdmega.org Aportes de CinemaniaHD la pass es:cinemaniahdd.com
Guardado en : Acción , Crimen , Drama , Remux , Suspenso

Películas relacionadas

  • Ajin: Semi-Humano (2017) AMZN WEB-DL 1080p Latino

    Ajin: Semi-Humano (2017) AMZN WEB-DL 1080p Latino

    2017
    Ajin: Semi-Humano (2017) AMZN WEB-DL 1080p Latino

    1h 50m 2017

    Descargar Ajin: Semi-Humano (2017) AMZN WEB-DL 1080p Latino. En el manga original, aparece una persona...

    Director: Toru Yamamoto

    Género: Acción

    Actores: Yuki Yamada

  • Ajin: Semi-Humano (2017) REMUX 1080p Latino

    Ajin: Semi-Humano (2017) REMUX 1080p Latino

    2017
    Ajin: Semi-Humano (2017) REMUX 1080p Latino

    1h 50m 2017

    Descargar Ajin: Semi-Humano (2017) REMUX 1080p Latino. En el manga original, aparece una persona inmortal...

    Director: Toru Yamamoto

    Género: Acción

    Actores: Yuki Yamada

  • Zola (2020) HD 1080p Latino

    Zola (2020) HD 1080p Latino

    2020
    Zola (2020) HD 1080p Latino

    1h 26m 2020

    Descargar Zola (2020) HD 1080p Latino. Una camarera accede a acompañar a una bailarina exótica, su...

    Director: Sheri Davani

    Género: Comedia

    Actores: Ts Madison

descargar Rápido y Furioso 3 (2006) REMUX 1080p Latino – CMHDD Full 1080p 1080p gratis, Rápido y Furioso 3 (2006) REMUX 1080p Latino – CMHDD Full 1080p mega 1 link, Rápido y Furioso 3 (2006) REMUX 1080p Latino – CMHDD Full 1080p pelicula completa, descargar Rápido y Furioso 3 (2006) REMUX 1080p Latino – CMHDD Full 1080p gratis en mega.

Rápido y Furioso 3 (2006) REMUX 1080p Latino – CMHDD pelicula full hd, Rápido y Furioso 3 (2006) REMUX 1080p Latino – CMHDD mega latino, Rápido y Furioso 3 (2006) REMUX 1080p Latino – CMHDD 4k latino, Rápido y Furioso 3 (2006) REMUX 1080p Latino – CMHDD pelicula completa, Rápido y Furioso 3 (2006) REMUX 1080p Latino – CMHDD descargar gratis, descargar Rápido y Furioso 3 (2006) REMUX 1080p Latino – CMHDD pelicula latino, Rápido y Furioso 3 (2006) REMUX 1080p Latino – CMHDD 1 link mega, Rápido y Furioso 3 (2006) REMUX 1080p Latino – CMHDD 1 link google drive, Rápido y Furioso 3 (2006) REMUX 1080p Latino – CMHDD hd 1080p latino.