×

¿Problemas para descargar con Mozilla, EDGE? Deshabilita la opción "Abrir vinculos en una pestaña nueva" tal como lo muestra ésta imagen.

Rápido y Furioso (2001) REMUX 1080p Latino – CMHDD

429 vistas

Información de Rápido y Furioso (2001) REMUX 1080p Latino – CMHDD

Datos de la película

  • Calidad: Full 1080p
  • Audio: Español Latino DTS 5.1 BLURAY - Ingles DTS 5.1 BLURAY
  • Subtitulos: Español Latino SRT- FORZADOS SRT
  • Resolución: 1920x1080p
  • Formato: MKV
  • Codec: H.264
  • Encoder: Dracarys
  • Mediainfo: Clic para Mostrar Datos Ver
  • Format                      : Matroska
    Format version              : Version 4
    File size                   : 25.3 GiB
    Duration                    : 1 h 46 min
    Overall bit rate mode       : Variable
    Overall bit rate            : 33.9 Mb/s
    Encoded date                : UTC 2019-09-05 23:58:25
    Writing application         : mkvmerge v25.0.0 ('Prog Noir') 64-bit
    Writing library             : libebml v1.3.6 + libmatroska v1.4.9

    Video
    ID                          : 1
    Format                      : VC-1
    Format profile              : Advanced@L3
    Codec ID                    : V_MS/VFW/FOURCC / WVC1
    Codec ID/Hint               : Microsoft
    Duration                    : 1 h 46 min
    Bit rate                    : 28.5 Mb/s
    Width                       : 1 920 pixels
    Height                      : 1 080 pixels
    Display aspect ratio        : 16:9
    Frame rate mode             : Constant
    Frame rate                  : 23.976 (24000/1001) FPS
    Color space                 : YUV
    Chroma subsampling          : 4:2:0
    Bit depth                   : 8 bits
    Scan type                   : Progressive
    Compression mode            : Lossy
    Bits/(Pixel*Frame)          : 0.574
    Stream size                 : 21.3 GiB (84%)
    Default                     : Yes
    Forced                      : No

    Audio #1
    ID                          : 2
    Format                      : DTS
    Format/Info                 : Digital Theater Systems
    Codec ID                    : A_DTS
    Duration                    : 1 h 46 min
    Bit rate mode               : Constant
    Bit rate                    : 768 kb/s
    Channel(s)                  : 6 channels
    Channel layout              : C L R Ls Rs LFE
    Sampling rate               : 48.0 kHz
    Frame rate                  : 93.750 FPS (512 SPF)
    Bit depth                   : 24 bits
    Compression mode            : Lossy
    Stream size                 : 588 MiB (2%)
    Language                    : Spanish
    Default                     : Yes
    Forced                      : Yes

    Audio #2
    ID                          : 3
    Format                      : DTS XLL
    Format/Info                 : Digital Theater Systems
    Commercial name             : DTS-HD Master Audio
    Codec ID                    : A_DTS
    Duration                    : 1 h 46 min
    Bit rate mode               : Variable
    Bit rate                    : 4 590 kb/s
    Channel(s)                  : 6 channels
    Channel layout              : C L R Ls Rs LFE
    Sampling rate               : 48.0 kHz
    Frame rate                  : 93.750 FPS (512 SPF)
    Bit depth                   : 24 bits
    Compression mode            : Lossless
    Stream size                 : 3.43 GiB (14%)
    Language                    : English
    Default                     : No
    Forced                      : No

    Text #1
    ID                          : 4
    Format                      : UTF-8
    Codec ID                    : S_TEXT/UTF8
    Codec ID/Info               : UTF-8 Plain Text
    Duration                    : 1 h 26 min
    Bit rate                    : 0 b/s
    Count of elements           : 11
    Stream size                 : 386 Bytes (0%)
    Language                    : Spanish
    Default                     : Yes
    Forced                      : Yes

    Text #2
    ID                          : 5
    Format                      : UTF-8
    Codec ID                    : S_TEXT/UTF8
    Codec ID/Info               : UTF-8 Plain Text
    Duration                    : 1 h 45 min
    Bit rate                    : 40 b/s
    Count of elements           : 850
    Stream size                 : 31.1 KiB (0%)
    Language                    : Spanish
    Default                     : No
    Forced                      : No

    Text #3
    ID                          : 6
    Format                      : PGS
    Muxing mode                 : zlib
    Codec ID                    : S_HDMV/PGS
    Codec ID/Info               : Picture based subtitle format used on BDs/HD-DVDs
    Duration                    : 1 h 45 min
    Bit rate                    : 24.9 kb/s
    Count of elements           : 1840
    Stream size                 : 18.8 MiB (0%)
    Language                    : Spanish
    Default                     : No
    Forced                      : No

  • Peso: 25.3 GiB

Sinopsis

Una misteriosa banda de delincuentes se dedica a robar camiones en plena marcha desde vehículos deportivos. La policía decide infiltrar a un hombre en el mundo de las carreras ilegales para descubrir posibles sospechosos. El joven y apuesto Brian entra en el mundo del tuning donde conoce a Dominic, rey indiscutible de este mundo y sospechoso número uno, pero todo se complica cuando se enamora de la hermana de éste.

Ficha técnica

Video trailer de la película

Enlaces de descarga

Rip de Bluray

Descargar Rápido y Furioso (2001) REMUX 1080p Latino – CMHDD


Aportes de DPeliculasHDmega la pass es:dpeliculashdmega.org Aportes de CinemaniaHD la pass es:cinemaniahdd.com
Guardado en : Acción , Crimen , Remux , Suspenso

Películas relacionadas

  • Togo (2022) NF WEB-DL 1080p Latino

    Togo (2022) NF WEB-DL 1080p Latino

    2022
    Togo (2022) NF WEB-DL 1080p Latino

    1h 35m 2022

    Descargar Togo (2022) NF WEB-DL 1080p Latino. Los narcos de poca monta están copando las calles de Montevideo...

    Director: Adrián Caetano

    Género: Crimen

    Actores: Tito Prieto

  • DC Liga De Supermascotas (2022) HD 1080p Latino

    DC Liga De Supermascotas (2022) HD 1080p Latino

    2022
    DC Liga De Supermascotas (2022) HD 1080p Latino

    1h 45m 2022

    Descargar DC Liga De Supermascotas (2022) HD 1080p Latino. Krypto el Superperro y Superman son amigos...

    Director: Sam Levine

    Género: Acción

    Actores: Yvette Nicole Brown

  • Invitacion Al Infierno (2022) MA WEB-DL 1080p Latino

    Invitacion Al Infierno (2022) MA WEB-DL 1080p Latino

    2022
    Invitacion Al Infierno (2022) MA WEB-DL 1080p Latino

    1h 45m 2022

    Descargar Invitacion Al Infierno (2022) MA WEB-DL 1080p Latino. Tras la muerte de su madre y quedarse...

    Director: Jessica M. Thompson

    Género: Suspenso

    Actores: Virág Bárány

descargar Rápido y Furioso (2001) REMUX 1080p Latino – CMHDD Full 1080p 1080p gratis, Rápido y Furioso (2001) REMUX 1080p Latino – CMHDD Full 1080p mega 1 link, Rápido y Furioso (2001) REMUX 1080p Latino – CMHDD Full 1080p pelicula completa, descargar Rápido y Furioso (2001) REMUX 1080p Latino – CMHDD Full 1080p gratis en mega.

Rápido y Furioso (2001) REMUX 1080p Latino – CMHDD pelicula full hd, Rápido y Furioso (2001) REMUX 1080p Latino – CMHDD mega latino, Rápido y Furioso (2001) REMUX 1080p Latino – CMHDD 4k latino, Rápido y Furioso (2001) REMUX 1080p Latino – CMHDD pelicula completa, Rápido y Furioso (2001) REMUX 1080p Latino – CMHDD descargar gratis, descargar Rápido y Furioso (2001) REMUX 1080p Latino – CMHDD pelicula latino, Rápido y Furioso (2001) REMUX 1080p Latino – CMHDD 1 link mega, Rápido y Furioso (2001) REMUX 1080p Latino – CMHDD 1 link google drive, Rápido y Furioso (2001) REMUX 1080p Latino – CMHDD hd 1080p latino.