×

¿Problemas para descargar con Mozilla, EDGE? Deshabilita la opción "Abrir vinculos en una pestaña nueva" tal como lo muestra ésta imagen.

Rápido y Furioso 2 (2003) [Open Matte] WEB-DL 1080p Latino

218 vistas

Información de Rápido y Furioso 2 (2003) [Open Matte] WEB-DL 1080p Latino

Datos de la película

  • Calidad: 1080p
  • Audio: Español Latino AC3 5.1 WEB-DL - Ingles AC3 5.1 WEB-DL
  • Subtitulos: Español Latino SRT- FORZADOS SRT
  • Resolución: 1920x1080
  • Formato: MKV
  • Codec: H.264
  • Encoder: cinemaniahdd
  • Mediainfo: Clic para Mostrar Datos Ver
  • Rápido y Furioso 2 (2003) [Open Matte] WEB-DL 1080p Latino [CNMNHDD].mkv
    Format                      : Matroska
    Format version              : Version 4
    File size                   : 11.9 GiB
    Duration                    : 1 h 47 min
    Overall bit rate mode       : Variable
    Overall bit rate            : 15.8 Mb/s
    Movie name                  : Rápido y Furioso 2 (2003) [Open Matte] - CinemaniaHDD.Net
    Encoded date                : UTC 2021-08-10 23:56:41
    Writing application         : mkvmerge v56.1.0 ('My Friend') 64-bit
    Writing library             : libebml v1.4.2 + libmatroska v1.6.4

    Video
    ID                          : 1
    Format                      : AVC
    Format/Info                 : Advanced Video Codec
    Format profile              : High@L4
    Format settings             : CABAC / 4 Ref Frames
    Format settings, CABAC      : Yes
    Format settings, Reference  : 4 frames
    Codec ID                    : V_MPEG4/ISO/AVC
    Duration                    : 1 h 47 min
    Bit rate mode               : Variable
    Bit rate                    : 14.1 Mb/s
    Maximum bit rate            : 15.0 Mb/s
    Width                       : 1 920 pixels
    Height                      : 1 080 pixels
    Display aspect ratio        : 16:9
    Frame rate mode             : Constant
    Frame rate                  : 23.976 (24000/1001) FPS
    Color space                 : YUV
    Chroma subsampling          : 4:2:0
    Bit depth                   : 8 bits
    Scan type                   : Progressive
    Bits/(Pixel*Frame)          : 0.284
    Stream size                 : 10.6 GiB (89%)
    Title                       : CinemaniaHDD
    Language                    : English
    Default                     : Yes
    Forced                      : No
    Color range                 : Limited
    Color primaries             : BT.709
    Transfer characteristics    : BT.709
    Matrix coefficients         : BT.709

    Audio #1
    ID                          : 2
    Format                      : AC-3
    Format/Info                 : Audio Coding 3
    Commercial name             : Dolby Digital
    Codec ID                    : A_AC3
    Duration                    : 1 h 47 min
    Bit rate mode               : Constant
    Bit rate                    : 384 kb/s
    Channel(s)                  : 2 channels
    Channel layout              : L R
    Sampling rate               : 48.0 kHz
    Frame rate                  : 31.250 FPS (1536 SPF)
    Compression mode            : Lossy
    Stream size                 : 295 MiB (2%)
    Title                       : Español latino / 2.0 [CinemaniaHDD]
    Language                    : Spanish
    Service kind                : Complete Main
    Default                     : Yes
    Forced                      : No

    Audio #2
    ID                          : 3
    Format                      : AC-3
    Format/Info                 : Audio Coding 3
    Commercial name             : Dolby Digital
    Codec ID                    : A_AC3
    Duration                    : 1 h 47 min
    Bit rate mode               : Constant
    Bit rate                    : 640 kb/s
    Channel(s)                  : 6 channels
    Channel layout              : L R C LFE Ls Rs
    Sampling rate               : 48.0 kHz
    Frame rate                  : 31.250 FPS (1536 SPF)
    Compression mode            : Lossy
    Stream size                 : 492 MiB (4%)
    Title                       : Español latino / 5.1 [CinemaniaHDD]
    Language                    : Spanish
    Service kind                : Complete Main
    Default                     : No
    Forced                      : No

    Audio #3
    ID                          : 4
    Format                      : AC-3
    Format/Info                 : Audio Coding 3
    Commercial name             : Dolby Digital
    Codec ID                    : A_AC3
    Duration                    : 1 h 47 min
    Bit rate mode               : Constant
    Bit rate                    : 640 kb/s
    Channel(s)                  : 6 channels
    Channel layout              : L R C LFE Ls Rs
    Sampling rate               : 48.0 kHz
    Frame rate                  : 31.250 FPS (1536 SPF)
    Compression mode            : Lossy
    Delay relative to video     : 10 ms
    Stream size                 : 493 MiB (4%)
    Title                       : Inglés / 5.1 [CinemaniaHDD]
    Language                    : English
    Service kind                : Complete Main
    Default                     : No
    Forced                      : No

    Text #1
    ID                          : 5
    Format                      : UTF-8
    Codec ID                    : S_TEXT/UTF8
    Codec ID/Info               : UTF-8 Plain Text
    Duration                    : 1 h 46 min
    Bit rate                    : 0 b/s
    Count of elements           : 9
    Stream size                 : 187 Bytes (0%)
    Title                       : Forzados [CinemaniaHDD]
    Language                    : Spanish
    Default                     : Yes
    Forced                      : Yes

    Text #2
    ID                          : 6
    Format                      : UTF-8
    Codec ID                    : S_TEXT/UTF8
    Codec ID/Info               : UTF-8 Plain Text
    Duration                    : 1 h 46 min
    Bit rate                    : 43 b/s
    Count of elements           : 1052
    Stream size                 : 34.0 KiB (0%)
    Title                       : Español latino [CinemaniaHDD]
    Language                    : Spanish
    Default                     : No
    Forced                      : No

     

  • Peso: 11.9 GiB

Sinopsis

Secuela de «A todo gas» (The Fast and the Furious). Brian O’Connor, un policía caído en desgracia, fue un adicto a la velocidad y ahora está pagando un precio por ello. Tal y como lo ven sus antiguos jefes y los altos mandos del FBI, este agente de incógnito les echó a perder una de las investigaciones más importantes que habían emprendido.

Ficha técnica

Video trailer de la película

Enlaces de descarga

Rip de Bluray

Descargar Rápido y Furioso 2 (2003) [Open Matte] WEB-DL 1080p Latino




Aportes de DPeliculasHDmega la pass es:dpeliculashdmega.org Aportes de CinemaniaHD la pass es:cinemaniahdd.com
Guardado en : Acción , Crimen , OPEN MATTE , Suspenso

Películas relacionadas

  • El Perfumista (2022) NF WEB-DL 1080p Latino

    El Perfumista (2022) NF WEB-DL 1080p Latino

    2022
    El Perfumista (2022) NF WEB-DL 1080p Latino

    1h 36m 2022

    Descargar El Perfumista (2022) NF WEB-DL 1080p Latino. Para recuperar su sentido del olfato y el afecto...

    Director: Nils Willbrandt

    Género: Crimen

    Actores: Sólveig Arnarsdóttir

  • The Infernal Machine (2022) WEB-DL 1080p Latino

    The Infernal Machine (2022) WEB-DL 1080p Latino

    2022
    The Infernal Machine (2022) WEB-DL 1080p Latino

    1h 47m 2022

    Bruce Cogburn, un autor controversial y solitario, debe salir de su escondite cuando comienza...

    Director: Andrew Hunt

    Género: Suspenso

    Actores: Rocco Salata

  • Taken 3 (2014) UNRATED REMUX 1080p Latino – CMHDD

    Taken 3 (2014) UNRATED REMUX 1080p Latino – CMHDD

    2014
    Taken 3 (2014) UNRATED REMUX 1080p Latino – CMHDD

    1h 49m 2014

    Tercera entrega de la trilogía iniciada en 2008 con 'Venganza' y que cuenta con una secuela en 2012...

    Director: Winter Goury du Roslan

    Género: Acción

    Actores: Wallace Langham

  • Taken 2 (2012) UNRATED REMUX 1080p Latino – CMHDD

    Taken 2 (2012) UNRATED REMUX 1080p Latino – CMHDD

    2012
    Taken 2 (2012) UNRATED REMUX 1080p Latino – CMHDD

    1h 31m 2012

    Aunque ya está retirado, Bryan Mills se ve obligado a utilizar todos sus recursos y habilidades de agente...

    Director: William Pruss

    Género: Acción

    Actores: Yilmaz Kovan

descargar Rápido y Furioso 2 (2003) [Open Matte] WEB-DL 1080p Latino 1080p 1080p gratis, Rápido y Furioso 2 (2003) [Open Matte] WEB-DL 1080p Latino 1080p mega 1 link, Rápido y Furioso 2 (2003) [Open Matte] WEB-DL 1080p Latino 1080p pelicula completa, descargar Rápido y Furioso 2 (2003) [Open Matte] WEB-DL 1080p Latino 1080p gratis en mega.

Rápido y Furioso 2 (2003) [Open Matte] WEB-DL 1080p Latino pelicula full hd, Rápido y Furioso 2 (2003) [Open Matte] WEB-DL 1080p Latino mega latino, Rápido y Furioso 2 (2003) [Open Matte] WEB-DL 1080p Latino 4k latino, Rápido y Furioso 2 (2003) [Open Matte] WEB-DL 1080p Latino pelicula completa, Rápido y Furioso 2 (2003) [Open Matte] WEB-DL 1080p Latino descargar gratis, descargar Rápido y Furioso 2 (2003) [Open Matte] WEB-DL 1080p Latino pelicula latino, Rápido y Furioso 2 (2003) [Open Matte] WEB-DL 1080p Latino 1 link mega, Rápido y Furioso 2 (2003) [Open Matte] WEB-DL 1080p Latino 1 link google drive, Rápido y Furioso 2 (2003) [Open Matte] WEB-DL 1080p Latino hd 1080p latino.
Comentarios 0