Rampage: devastación (2018) 1080p Latino

2.403 vistas
1 estrella2 estrellas3 estrellas4 estrellas5 estrellas (2 votos, promedio: 5,00 de 5)
Cargando…

Información de Rampage: devastación (2018) 1080p Latino

Datos de la película

  • Calidad: 1080p
  • Audio: Español Latino AC3 5.1 BLURAY - Ingles AC3 5.1 BLURAY
  • Subtitulos: Español Latino SRT- FORZADOS SRT
  • Resolución: 1920x800
  • Formato: MKV
  • Codec: H.264
  • Encoder: Dracarys
  • Mediainfo: Clic para Mostrar Datos Ver
  • Format                                   : Matroska
    Format version                           : Version 4 / Version 2
    File size                                : 3.36 GiB
    Duration                                 : 1 h 47 min
    Overall bit rate                         : 4 490 kb/s
    Movie name                               : CinemaniaHDD.net
    Encoded date                             : UTC 2018-07-03 17:19:47 / UTC 2018-07-02T02:45:24Z
    Writing application                      : mkvmerge v15.0.0 ('Duel with the Devil') 64-bit
    Writing library                          : libebml v1.3.5 + libmatroska v1.4.5 / Lavf57.7.2

    Video
    ID                                       : 1
    Format                                   : AVC
    Format/Info                              : Advanced Video Codec
    Format profile                           : High@L4.1
    Format settings                          : CABAC / 4 Ref Frames
    Format settings, CABAC                   : Yes
    Format settings, RefFrames               : 4 frames
    Codec ID                                 : V_MPEG4/ISO/AVC
    Duration                                 : 1 h 47 min
    Bit rate                                 : 3 312 kb/s
    Nominal bit rate                         : 3 500 kb/s
    Width                                    : 1 920 pixels
    Height                                   : 800 pixels
    Display aspect ratio                     : 2.40:1
    Frame rate mode                          : Constant
    Frame rate                               : 23.976 (24000/1001) FPS
    Color space                              : YUV
    Chroma subsampling                       : 4:2:0
    Bit depth                                : 8 bits
    Scan type                                : Progressive
    Bits/(Pixel*Frame)                       : 0.090
    Stream size                              : 2.48 GiB (74%)
    Title                                    : Rampage devastación (2018) 1080p Latino
    Writing library                          : x264 core 148 r2708 86b7198
    Encoding settings                        : cabac=1 / ref=3 / deblock=1:0:0 / analyse=0x3:0x113 / me=hex / subme=7 / psy=1 / psy_rd=1.00:0.00 / mixed_ref=1 / me_range=16 / chroma_me=1 / trellis=1 / 8x8dct=1 / cqm=0 / deadzone=21,11 / fast_pskip=1 / chroma_qp_offset=-2 / threads=25 / lookahead_threads=4 / sliced_threads=0 / nr=0 / decimate=1 / interlaced=0 / bluray_compat=0 / constrained_intra=0 / bframes=3 / b_pyramid=2 / b_adapt=1 / b_bias=0 / direct=1 / weightb=1 / open_gop=0 / weightp=2 / keyint=240 / keyint_min=24 / scenecut=40 / intra_refresh=0 / rc_lookahead=40 / rc=abr / mbtree=1 / bitrate=3500 / ratetol=1.0 / qcomp=0.60 / qpmin=0 / qpmax=69 / qpstep=4 / vbv_maxrate=62500 / vbv_bufsize=78125 / nal_hrd=none / filler=0 / ip_ratio=1.40 / aq=1:1.00
    Language                                 : English
    Default                                  : Yes
    Forced                                   : No
    Color range                              : Limited
    Color primaries                          : BT.709
    Transfer characteristics                 : BT.709
    Matrix coefficients                      : BT.709
    Statistics Tags Issue                    : mkvmerge v15.0.0 ('Duel with the Devil') 64-bit 2018-07-03 17:19:47 / mkvmerge v15.0.0 ('Duel with the Devil') 64-bit 2018-07-03 17:19:47 / UTC 2018-07-02T02:45:24Z
    FromStats_BitRate                        : 3399443
    FromStats_Duration                       : 01:47:16.055000000
    FromStats_FrameCount                     : 154311
    FromStats_StreamSize                     : 2734875448

    Audio #1
    ID                                       : 2
    Format                                   : AC-3
    Format/Info                              : Audio Coding 3
    Format settings, Endianness              : Big
    Codec ID                                 : A_AC3
    Duration                                 : 1 h 47 min
    Bit rate mode                            : Constant
    Bit rate                                 : 448 kb/s
    Channel(s)                               : 6 channels
    Channel positions                        : Front: L C R, Side: L R, LFE
    Sampling rate                            : 48.0 kHz
    Frame rate                               : 31.250 FPS (1536 SPF)
    Bit depth                                : 16 bits
    Compression mode                         : Lossy
    Stream size                              : 344 MiB (10%)
    Language                                 : Spanish
    Service kind                             : Complete Main
    Default                                  : Yes
    Forced                                   : No
    Statistics Tags Issue                    : mkvmerge v15.0.0 ('Duel with the Devil') 64-bit 2018-07-03 17:19:47 / mkvmerge v15.0.0 ('Duel with the Devil') 64-bit 2018-07-03 17:19:47 / UTC 2018-07-02T02:45:24Z
    FromStats_BitRate                        : 448000
    FromStats_Duration                       : 01:47:16.128000000
    FromStats_FrameCount                     : 201129
    FromStats_StreamSize                     : 360423168

    Audio #2
    ID                                       : 3
    Format                                   : AC-3
    Format/Info                              : Audio Coding 3
    Format settings, Endianness              : Big
    Codec ID                                 : A_AC3
    Duration                                 : 1 h 47 min
    Bit rate mode                            : Constant
    Bit rate                                 : 640 kb/s
    Channel(s)                               : 6 channels
    Channel positions                        : Front: L C R, Side: L R, LFE
    Sampling rate                            : 48.0 kHz
    Frame rate                               : 31.250 FPS (1536 SPF)
    Bit depth                                : 16 bits
    Compression mode                         : Lossy
    Stream size                              : 491 MiB (14%)
    Language                                 : English
    Service kind                             : Complete Main
    Default                                  : No
    Forced                                   : No
    Statistics Tags Issue                    : mkvmerge v15.0.0 ('Duel with the Devil') 64-bit 2018-07-03 17:19:47 / mkvmerge v15.0.0 ('Duel with the Devil') 64-bit 2018-07-03 17:19:47 / UTC 2018-07-02T02:45:24Z
    FromStats_BitRate                        : 640000
    FromStats_Duration                       : 01:47:16.128000000
    FromStats_FrameCount                     : 201129
    FromStats_StreamSize                     : 514890240

    Text #1
    ID                                       : 4
    Format                                   : UTF-8
    Codec ID                                 : S_TEXT/UTF8
    Codec ID/Info                            : UTF-8 Plain Text
    Title                                    : Forzados
    Language                                 : Spanish
    Default                                  : Yes
    Forced                                   : Yes
    Statistics Tags Issue                    : mkvmerge v15.0.0 ('Duel with the Devil') 64-bit 2018-07-03 17:19:47 / mkvmerge v15.0.0 ('Duel with the Devil') 64-bit 2018-07-03 17:19:47 / UTC 2018-07-02T02:45:24Z
    FromStats_BitRate                        : 1
    FromStats_Duration                       : 01:32:00.995000000
    FromStats_FrameCount                     : 27
    FromStats_StreamSize                     : 1123

    Text #2
    ID                                       : 5
    Format                                   : UTF-8
    Codec ID                                 : S_TEXT/UTF8
    Codec ID/Info                            : UTF-8 Plain Text
    Language                                 : Spanish
    Default                                  : No
    Forced                                   : No
    Statistics Tags Issue                    : mkvmerge v15.0.0 ('Duel with the Devil') 64-bit 2018-07-03 17:19:47 / mkvmerge v15.0.0 ('Duel with the Devil') 64-bit 2018-07-03 17:19:47 / UTC 2018-07-02T02:45:24Z
    FromStats_BitRate                        : 52
    FromStats_Duration                       : 01:38:51.724000000
    FromStats_FrameCount                     : 1273
    FromStats_StreamSize                     : 38889

    Menu
    00:00:00.000                             : :00:00:00.000
    00:12:58.528                             : :00:12:58.528
    00:19:56.278                             : :00:19:56.278
    00:29:53.292                             : :00:29:53.291
    00:40:35.391                             : :00:40:35.391
    00:49:10.906                             : :00:49:10.906
    01:02:38.171                             : :01:02:38.171
    01:10:37.650                             : :01:10:37.650
    01:20:10.472                             : :01:20:10.472
    01:29:23.608                             : :01:29:23.608
    01:39:43.227                             : :01:39:43.186

  • Peso: 3.36 GiB

Sinopsis

El primatólogo Davis Okoye, un hombre que mantiene las distancias con otras personas, tiene un sólido vínculo con George, el extraordinariamente inteligente gorila de espalda plateada al que ha estado cuidando desde que nació. Pero cuando un experimento genético sale mal, este apacible simio se convierte en una enorme y embravecida criatura. Para empeorar más las cosas, pronto se descubre que existen otros animales con la misma alteración. Cuando estos depredadores alfa recién creados arrasan Norteamérica destruyendo todo lo que interpone en su camino, Okoye se une a un ingeniero genético sin prestigio para conseguir un antídoto y se abre paso en un cambiante campo de batalla, no solo para frenar una catástrofe mundial sino para salvar a la aterradora criatura que una vez fue su amigo. Adaptación al cine del videojuego “Rampage”, en el que simios y monstruos de todo tipo atacan y destruyen ciudades.

Ficha técnica

Video trailer de la película

Enlaces de descarga

Rip de Bluray

Descargar Rampage: devastación (2018) 1080p Latino




Aportes de DPeliculasHDmega la pass es:dpeliculashdmega.org Aportes de CinemaniaHD la pass es:cinemaniahdd.com

Películas relacionadas

  • El Jefe de la Mafia: Gotti (2018) 1080p Latino

    2018
    El Jefe de la Mafia: Gotti (2018) 1080p Latino

    1.0 1h 50m 2018

    Descargar El Jefe de la Mafia: Gotti (2018) 1080p Latino, Mega, Google Drive. Biopic del famoso mafioso...

    Director: S. B. Weathersby

    Género: Crimen

    Actores: William DeMeo

  • El final del viaje (2018) 1080p Latino

    2018
    El final del viaje (2018) 1080p Latino

    1.0 1h 48m 2018

    Descargar El final del viaje (2018) 1080p Latino, Mega, Google Drive. Un grupo de soldados británicos...

    Director: Saul Dibb

    Género: Bélica

    Actores: Tom Sturridge

  • Mision: Imposible 2 (2000) Full 1080p Latino

    2000
    Mision: Imposible 2 (2000) Full 1080p Latino

    3.0 2h 3m 2000

    Descargar Mision: Imposible 2 (2000) Full 1080p Latino, Mega, Google Drive. El agente especial Ethan...

    Director: William H. Burton Jr.

    Género: Acción

    Actores: William Mapother

  • Mision: Imposible 2 (2000) 1080p Latino

    2000
    Mision: Imposible 2 (2000) 1080p Latino

    1.0 2h 3m 2000

    Descargar Mision: Imposible 2 (2000) 1080p Latino, Mega, Google Drive. El agente especial Ethan Hunt...

    Director: William H. Burton Jr.

    Género: Acción

    Actores: William Mapother

  • Mision: Imposible (1996) Full 1080p Latino

    1996
    Mision: Imposible (1996) Full 1080p Latino

    3.7 1h 50m 1996

    Mission: Impossible (1996) Full 1080p Latino, Mega, Google Drive. Ethan Hunt es un superespía capaz...

    Director: Nick Moore

    Género: Acción

    Actores: Ving Rhames

Comentarios 1
  • Franckable - 09 septiembre, 2018

    Gracias por el aporte, lo estaba buscando en esta calidad!!!!