×

¿Problemas para descargar con Mozilla, EDGE? Deshabilita la opción "Abrir vinculos en una pestaña nueva" tal como lo muestra ésta imagen.

Rambo First Blood (1982) REMUX 1080p Latino – CMHDD

345 vistas

Información de Rambo First Blood (1982) REMUX 1080p Latino – CMHDD

Datos de la película

  • Calidad: Full 1080p
  • Audio: Se especifica abajo de la Sinopsis
  • Subtitulos: Español Latino PGS
  • Resolución: 1920x1080p
  • Formato: MKV
  • Codec: H.264
  • Encoder: Dracarys
  • Mediainfo: Clic para Mostrar Datos Ver
  • Format                      : Matroska
    Format version              : Version 4
    File size                   : 14.8 GiB
    Duration                    : 1 h 33 min
    Overall bit rate mode       : Variable
    Overall bit rate            : 22.7 Mb/s
    Movie name                  : Rambo First Blood (1982) REMUX 1080p Latino - CMHDD
    Encoded date                : UTC 2021-01-06 04:40:14
    Writing application         : mkvmerge v51.0.0 ('I Wish') 64-bit
    Writing library             : libebml v1.4.0 + libmatroska v1.6.2

    Video
    ID                          : 1
    Format                      : AVC
    Format/Info                 : Advanced Video Codec
    Format profile              : High@L4.1
    Format settings             : CABAC / 2 Ref Frames
    Format settings, CABAC      : Yes
    Format settings, Reference  : 2 frames
    Format settings, GOP        : M=1, N=10
    Codec ID                    : V_MPEG4/ISO/AVC
    Duration                    : 1 h 33 min
    Bit rate mode               : Variable
    Bit rate                    : 20.0 Mb/s
    Width                       : 1 920 pixels
    Height                      : 1 080 pixels
    Display aspect ratio        : 16:9
    Frame rate mode             : Constant
    Frame rate                  : 23.976 (24000/1001) FPS
    Color space                 : YUV
    Chroma subsampling          : 4:2:0
    Bit depth                   : 8 bits
    Scan type                   : Progressive
    Bits/(Pixel*Frame)          : 0.402
    Stream size                 : 13.0 GiB (88%)
    Default                     : Yes
    Forced                      : No

    Audio #1
    ID                          : 2
    Format                      : DTS XLL
    Format/Info                 : Digital Theater Systems
    Commercial name             : DTS-HD Master Audio
    Codec ID                    : A_DTS
    Duration                    : 1 h 33 min
    Bit rate mode               : Variable
    Bit rate                    : 905 kb/s
    Channel(s)                  : 2 channels
    Channel layout              : L R
    Sampling rate               : 48.0 kHz
    Frame rate                  : 93.750 FPS (512 SPF)
    Bit depth                   : 16 bits
    Compression mode            : Lossless
    Stream size                 : 604 MiB (4%)
    Language                    : Spanish
    Default                     : Yes
    Forced                      : No

    Audio #2
    ID                          : 3
    Format                      : DTS XLL
    Format/Info                 : Digital Theater Systems
    Commercial name             : DTS-HD Master Audio
    Codec ID                    : A_DTS
    Duration                    : 1 h 33 min
    Bit rate mode               : Variable
    Bit rate                    : 1 853 kb/s
    Channel(s)                  : 6 channels
    Channel layout              : C L R Ls Rs LFE
    Sampling rate               : 48.0 kHz
    Frame rate                  : 93.750 FPS (512 SPF)
    Bit depth                   : 16 bits
    Compression mode            : Lossless
    Stream size                 : 1.21 GiB (8%)
    Language                    : English
    Default                     : No
    Forced                      : No

    Text
    ID                          : 4
    Format                      : PGS
    Muxing mode                 : zlib
    Codec ID                    : S_HDMV/PGS
    Codec ID/Info               : Picture based subtitle format used on BDs/HD-DVDs
    Duration                    : 1 h 32 min
    Bit rate                    : 24.9 kb/s
    Count of elements           : 1816
    Stream size                 : 16.4 MiB (0%)
    Language                    : Spanish
    Default                     : No
    Forced                      : No

  • Peso: 14.8 GiB

Sinopsis

John Rambo, antiguo boina verde, va a visitar a un antiguo compañero de armas y recibe la noticia de que éste ha muerto como consecuencia de los efectos de la guerra. A pocos días, la policía detiene a Rambo por vagabundo y se ensaña con él. Entonces recuerda las torturas que sufrió en Vietnan y reacciona violentamente.

Latino: DTS-HD Master Audio 2.0 – Ingles: DTS-HD Master Audio 5.1

Ficha técnica

Video trailer de la película

Enlaces de descarga

Rip de Bluray

Descargar Rambo First Blood (1982) REMUX 1080p Latino – CMHDD


Aportes de DPeliculasHDmega la pass es:dpeliculashdmega.org Aportes de CinemaniaHD la pass es:cinemaniahdd.com
Guardado en : Acción , Aventura , Bélica , Suspenso

Películas relacionadas

  • La Guerra Del Futuro (2022) NF WEB-DL 1080p Latino

    La Guerra Del Futuro (2022) NF WEB-DL 1080p Latino

    2022
    La Guerra Del Futuro (2022) NF WEB-DL 1080p Latino

    1h 41m 2022

    Descargar La Guerra Del Futuro (2022) NF WEB-DL 1080p Latino. Tras la caída de un meteorito que alberga...

    Director: Ng Yuen-fai

    Género: Acción

    Actores: Tse Kwan-Ho

  • The Independent (2022) PCOK WEB-DL 1080p Latino

    The Independent (2022) PCOK WEB-DL 1080p Latino

    2022
    The Independent (2022) PCOK WEB-DL 1080p Latino

    1h 48m 2022

    Una joven periodista descubre una conspiración que involucra a un candidato presidencial de Estados...

    Director: Amy Rice

    Género: Suspenso

    Actores: Zane Pais

  • Super… ¿quién? (2021) HD 1080p Latino

    Super… ¿quién? (2021) HD 1080p Latino

    2022
    Super… ¿quién? (2021) HD 1080p Latino

    1h 22m 2022

    Descargar Super... ¿quién? (2021) HD 1080p Latino. Cedric (Philippe Lacheau) intenta ganarse la vida...

    Director: Philippe Lacheau

    Género: Acción

    Actores: Yves Yan

  • Super… ¿quién? (2021) REMUX 1080p Latino

    Super… ¿quién? (2021) REMUX 1080p Latino

    2022
    Super… ¿quién? (2021) REMUX 1080p Latino

    1h 22m 2022

    Descargar Super... ¿quién? (2021) REMUX 1080p Latino. Cedric (Philippe Lacheau) intenta ganarse la...

    Director: Philippe Lacheau

    Género: Acción

    Actores: Yves Yan

descargar Rambo First Blood (1982) REMUX 1080p Latino – CMHDD Full 1080p 1080p gratis, Rambo First Blood (1982) REMUX 1080p Latino – CMHDD Full 1080p mega 1 link, Rambo First Blood (1982) REMUX 1080p Latino – CMHDD Full 1080p pelicula completa, descargar Rambo First Blood (1982) REMUX 1080p Latino – CMHDD Full 1080p gratis en mega.

Rambo First Blood (1982) REMUX 1080p Latino – CMHDD pelicula full hd, Rambo First Blood (1982) REMUX 1080p Latino – CMHDD mega latino, Rambo First Blood (1982) REMUX 1080p Latino – CMHDD 4k latino, Rambo First Blood (1982) REMUX 1080p Latino – CMHDD pelicula completa, Rambo First Blood (1982) REMUX 1080p Latino – CMHDD descargar gratis, descargar Rambo First Blood (1982) REMUX 1080p Latino – CMHDD pelicula latino, Rambo First Blood (1982) REMUX 1080p Latino – CMHDD 1 link mega, Rambo First Blood (1982) REMUX 1080p Latino – CMHDD 1 link google drive, Rambo First Blood (1982) REMUX 1080p Latino – CMHDD hd 1080p latino.
Comentarios 0