×

¿Problemas para descargar con Mozilla, EDGE? Deshabilita la opción "Abrir vinculos en una pestaña nueva" tal como lo muestra ésta imagen.

Rambo First Blood (1982) 4K HDR REMUX Latino – CMHDD

547 vistas

Información de Rambo First Blood (1982) 4K HDR REMUX Latino – CMHDD

Datos de la película

  • Calidad: 4K HDR
  • Audio: Español Latino AC3 2.0 BLURAY - Ingles DTS 5.1 BLURAY
  • Subtitulos: Español Latino SRT
  • Resolución: 3840x2160p
  • Formato: MKV
  • Codec: H.264
  • Encoder: Dracarys
  • Mediainfo: Clic para Mostrar Datos Ver
  • Format                      : Matroska
    Format version              : Version 4
    File size                   : 44.7 GiB
    Duration                    : 1 h 33 min
    Overall bit rate mode       : Variable
    Overall bit rate            : 68.5 Mb/s
    Movie name                  : Rambo First Blood (1982) 4K HDR REMUX Latino – CMHDD
    Encoded date                : UTC 2021-01-10 01:32:30
    Writing application         : mkvmerge v51.0.0 ('I Wish') 64-bit
    Writing library             : libebml v1.4.0 + libmatroska v1.6.2

    Video
    ID                          : 1
    Format                      : HEVC
    Format/Info                 : High Efficiency Video Coding
    Format profile              : Main 10@L5.1@High
    HDR format                  : SMPTE ST 2086, HDR10 compatible
    Codec ID                    : V_MPEGH/ISO/HEVC
    Duration                    : 1 h 33 min
    Bit rate                    : 64.7 Mb/s
    Width                       : 3 840 pixels
    Height                      : 2 160 pixels
    Display aspect ratio        : 16:9
    Frame rate mode             : Constant
    Frame rate                  : 24.000 FPS
    Color space                 : YUV
    Chroma subsampling          : 4:2:0 (Type 2)
    Bit depth                   : 10 bits
    Bits/(Pixel*Frame)          : 0.325
    Stream size                 : 42.2 GiB (94%)
    Writing library             : ATEME Titan File 3.8.22 (4.8.22.0)      
    Language                    : English
    Default                     : Yes
    Forced                      : No
    Color range                 : Limited
    Color primaries             : BT.2020
    Transfer characteristics    : PQ
    Matrix coefficients         : BT.2020 non-constant
    Mastering display color pri : Display P3
    Mastering display luminance : min: 0.0001 cd/m2, max: 1000 cd/m2
    Maximum Content Light Level : 479 cd/m2
    Maximum Frame-Average Light : 433 cd/m2

    Audio #1
    ID                          : 2
    Format                      : AC-3
    Format/Info                 : Audio Coding 3
    Commercial name             : Dolby Digital
    Codec ID                    : A_AC3
    Duration                    : 1 h 33 min
    Bit rate mode               : Constant
    Bit rate                    : 384 kb/s
    Channel(s)                  : 2 channels
    Channel layout              : L R
    Sampling rate               : 48.0 kHz
    Frame rate                  : 31.250 FPS (1536 SPF)
    Compression mode            : Lossy
    Stream size                 : 257 MiB (1%)
    Language                    : Spanish
    Service kind                : Complete Main
    Default                     : Yes
    Forced                      : No

    Audio #2
    ID                          : 3
    Format                      : DTS XLL
    Format/Info                 : Digital Theater Systems
    Commercial name             : DTS-HD Master Audio
    Codec ID                    : A_DTS
    Duration                    : 1 h 33 min
    Bit rate mode               : Variable
    Bit rate                    : 3 407 kb/s
    Channel(s)                  : 6 channels
    Channel layout              : C L R Ls Rs LFE
    Sampling rate               : 48.0 kHz
    Frame rate                  : 93.750 FPS (512 SPF)
    Bit depth                   : 24 bits
    Compression mode            : Lossless
    Stream size                 : 2.22 GiB (5%)
    Language                    : English
    Default                     : No
    Forced                      : No

    Text
    ID                          : 4
    Format                      : UTF-8
    Codec ID                    : S_TEXT/UTF8
    Codec ID/Info               : UTF-8 Plain Text
    Duration                    : 1 h 30 min
    Bit rate                    : 35 b/s
    Count of elements           : 608
    Stream size                 : 23.3 KiB (0%)
    Language                    : Spanish
    Default                     : No
    Forced                      : No

    Menu
    00:00:00.000                : en:Chapter 1
    00:10:13.167                : en:Chapter 2
    00:20:49.208                : en:Chapter 3
    00:30:31.417                : en:Chapter 4
    00:38:40.833                : en:Chapter 5
    00:47:38.625                : en:Chapter 6
    00:56:32.708                : en:Chapter 7
    01:06:07.125                : en:Chapter 8
    01:16:08.583                : en:Chapter 9
    01:24:46.167                : en:Chapter 10

  • Peso: 44.7 GiB

Sinopsis

John Rambo, antiguo boina verde, va a visitar a un antiguo compañero de armas y recibe la noticia de que éste ha muerto como consecuencia de los efectos de la guerra. A pocos días, la policía detiene a Rambo por vagabundo y se ensaña con él. Entonces recuerda las torturas que sufrió en Vietnan y reacciona violentamente.

Ficha técnica

Video trailer de la película

Enlaces de descarga

Rip de Bluray

Descargar Rambo First Blood (1982) 4K HDR REMUX Latino – CMHDD


Aportes de DPeliculasHDmega la pass es:dpeliculashdmega.org Aportes de CinemaniaHD la pass es:cinemaniahdd.com
Guardado en : Acción , Aventura , Bélica , Suspenso

Películas relacionadas

descargar Rambo First Blood (1982) 4K HDR REMUX Latino – CMHDD 4K HDR 1080p gratis, Rambo First Blood (1982) 4K HDR REMUX Latino – CMHDD 4K HDR mega 1 link, Rambo First Blood (1982) 4K HDR REMUX Latino – CMHDD 4K HDR pelicula completa, descargar Rambo First Blood (1982) 4K HDR REMUX Latino – CMHDD 4K HDR gratis en mega.

Rambo First Blood (1982) 4K HDR REMUX Latino – CMHDD pelicula full hd, Rambo First Blood (1982) 4K HDR REMUX Latino – CMHDD mega latino, Rambo First Blood (1982) 4K HDR REMUX Latino – CMHDD 4k latino, Rambo First Blood (1982) 4K HDR REMUX Latino – CMHDD pelicula completa, Rambo First Blood (1982) 4K HDR REMUX Latino – CMHDD descargar gratis, descargar Rambo First Blood (1982) 4K HDR REMUX Latino – CMHDD pelicula latino, Rambo First Blood (1982) 4K HDR REMUX Latino – CMHDD 1 link mega, Rambo First Blood (1982) 4K HDR REMUX Latino – CMHDD 1 link google drive, Rambo First Blood (1982) 4K HDR REMUX Latino – CMHDD hd 1080p latino.
Comentarios 0