×

¿Problemas para descargar con Mozilla, EDGE? Deshabilita la opción "Abrir vinculos en una pestaña nueva" tal como lo muestra ésta imagen.

Indiana Jones Y Los Cazadores Del Arca Perdida (1981) REMUX 1080p Latino

279 vistas

Información de Indiana Jones Y Los Cazadores Del Arca Perdida (1981) REMUX 1080p Latino

Datos de la película

  • Calidad: Full 1080p
  • Audio: Se especifica abajo de la Sinopsis
  • Subtitulos: Español Latino PGS - Ingles PGS
  • Resolución: 1920x1080p
  • Formato: MKV
  • Codec: H.264
  • Encoder: CinefiloCool
  • Mediainfo: Clic para Mostrar Datos Ver
  • Indiana Jones Los Cazadores del Arca Perdida (1981) REMUX 1080p Latino-CMHDD.mkv
    Format                      : Matroska
    Format version              : Version 4
    File size                   : 32.6 GiB
    Duration                    : 1 h 55 min
    Overall bit rate mode       : Variable
    Overall bit rate            : 40.5 Mb/s
    Movie name                  : Indiana Jones: And The Raiders Of The Lost Ark (1981) CinemaniaHDD.Net
    Encoded date                : UTC 2021-06-27 06:14:17
    Writing application         : mkvmerge v56.1.0 ('My Friend') 64-bit
    Writing library             : libebml v1.4.2 + libmatroska v1.6.4
    Attachments                 : CINEMANIAHD.png

    Video
    ID                          : 1
    Format                      : AVC
    Format/Info                 : Advanced Video Codec
    Format profile              : High@L4.1
    Format settings             : CABAC / 4 Ref Frames
    Format settings, CABAC      : Yes
    Format settings, Reference  : 4 frames
    Codec ID                    : V_MPEG4/ISO/AVC
    Duration                    : 1 h 55 min
    Bit rate mode               : Variable
    Bit rate                    : 34.5 Mb/s
    Maximum bit rate            : 36.0 Mb/s
    Width                       : 1 920 pixels
    Height                      : 1 080 pixels
    Display aspect ratio        : 16:9
    Frame rate mode             : Constant
    Frame rate                  : 23.976 (24000/1001) FPS
    Color space                 : YUV
    Chroma subsampling          : 4:2:0
    Bit depth                   : 8 bits
    Scan type                   : Progressive
    Bits/(Pixel*Frame)          : 0.695
    Stream size                 : 27.8 GiB (85%)
    Title                       : REMUX HD1080p [CinemaniaHDD]
    Default                     : Yes
    Forced                      : Yes

    Audio #1
    ID                          : 2
    Format                      : AC-3
    Format/Info                 : Audio Coding 3
    Commercial name             : Dolby Digital
    Codec ID                    : A_AC3
    Duration                    : 1 h 55 min
    Bit rate mode               : Constant
    Bit rate                    : 640 kb/s
    Channel(s)                  : 6 channels
    Channel layout              : L R C LFE Ls Rs
    Sampling rate               : 48.0 kHz
    Frame rate                  : 31.250 FPS (1536 SPF)
    Compression mode            : Lossy
    Stream size                 : 528 MiB (2%)
    Title                       : Español Latino REDUB [CinemaniaHDD]
    Language                    : Spanish
    Service kind                : Complete Main
    Default                     : Yes
    Forced                      : Yes

    Audio #2
    ID                          : 3
    Format                      : AC-3
    Format/Info                 : Audio Coding 3
    Commercial name             : Dolby Digital
    Codec ID                    : A_AC3
    Duration                    : 1 h 55 min
    Bit rate mode               : Constant
    Bit rate                    : 224 kb/s
    Channel(s)                  : 2 channels
    Channel layout              : L R
    Sampling rate               : 48.0 kHz
    Frame rate                  : 31.250 FPS (1536 SPF)
    Compression mode            : Lossy
    Stream size                 : 185 MiB (1%)
    Title                       : Español Latino ORG [CinemaniaHDD]
    Language                    : Spanish
    Service kind                : Complete Main
    Default                     : No
    Forced                      : No

    Audio #3
    ID                          : 4
    Format                      : E-AC-3
    Format/Info                 : Enhanced AC-3
    Commercial name             : Dolby Digital Plus
    Codec ID                    : A_EAC3
    Duration                    : 1 h 55 min
    Bit rate mode               : Constant
    Bit rate                    : 640 kb/s
    Channel(s)                  : 6 channels
    Channel layout              : L R C LFE Ls Rs
    Sampling rate               : 48.0 kHz
    Frame rate                  : 31.250 FPS (1536 SPF)
    Compression mode            : Lossy
    Stream size                 : 528 MiB (2%)
    Title                       : Español Latino REDUB DDP [CinemaniaHDD]
    Language                    : Spanish
    Service kind                : Complete Main
    Default                     : No
    Forced                      : No

    Audio #4
    ID                          : 5
    Format                      : MLP FBA 16-ch
    Format/Info                 : Meridian Lossless Packing FBA with 16-channel presentation
    Commercial name             : Dolby TrueHD with Dolby Atmos
    Codec ID                    : A_TRUEHD
    Duration                    : 1 h 55 min
    Bit rate mode               : Variable
    Bit rate                    : 3 761 kb/s
    Maximum bit rate            : 5 607 kb/s
    Channel(s)                  : 8 channels
    Channel layout              : L R C LFE Ls Rs Lb Rb
    Sampling rate               : 48.0 kHz
    Frame rate                  : 1 200.000 FPS (40 SPF)
    Compression mode            : Lossless
    Stream size                 : 3.03 GiB (9%)
    Title                       : Ingles THD [CinemaniaHDD]
    Language                    : English
    Default                     : No
    Forced                      : No
    Number of dynamic objects   : 11
    Bed channel count           : 1 channel
    Bed channel configuration   : LFE

    Audio #5
    ID                          : 6
    Format                      : AC-3
    Format/Info                 : Audio Coding 3
    Commercial name             : Dolby Digital
    Codec ID                    : A_AC3
    Duration                    : 1 h 55 min
    Bit rate mode               : Constant
    Bit rate                    : 640 kb/s
    Channel(s)                  : 6 channels
    Channel layout              : L R C LFE Ls Rs
    Sampling rate               : 48.0 kHz
    Frame rate                  : 31.250 FPS (1536 SPF)
    Compression mode            : Lossy
    Stream size                 : 528 MiB (2%)
    Title                       : Ingles AC3 [CinemaniaHDD]
    Language                    : English
    Service kind                : Complete Main
    Default                     : No
    Forced                      : No

    Text #1
    ID                          : 7
    Format                      : PGS
    Muxing mode                 : zlib
    Codec ID                    : S_HDMV/PGS
    Codec ID/Info               : Picture based subtitle format used on BDs/HD-DVDs
    Duration                    : 1 h 50 min
    Bit rate                    : 16.9 kb/s
    Count of elements           : 1232
    Stream size                 : 13.4 MiB (0%)
    Title                       : Español-PGS [CinemaniaHDD]
    Language                    : Spanish
    Default                     : No
    Forced                      : No

    Text #2
    ID                          : 8
    Format                      : PGS
    Muxing mode                 : zlib
    Codec ID                    : S_HDMV/PGS
    Codec ID/Info               : Picture based subtitle format used on BDs/HD-DVDs
    Duration                    : 1 h 48 min
    Bit rate                    : 21.9 kb/s
    Count of elements           : 2014
    Stream size                 : 17.0 MiB (0%)
    Title                       : Ingles-PGS [CinemaniaHDD]
    Language                    : English
    Default                     : No
    Forced                      : No

    Text #3
    ID                          : 9
    Format                      : UTF-8
    Codec ID                    : S_TEXT/UTF8
    Codec ID/Info               : UTF-8 Plain Text
    Duration                    : 1 h 48 min
    Bit rate                    : 0 b/s
    Count of elements           : 4
    Stream size                 : 48.0 Bytes (0%)
    Title                       : Forzados-SRT [CinemaniaHDD]
    Language                    : Spanish
    Default                     : Yes
    Forced                      : Yes

    Text #4
    ID                          : 10
    Format                      : UTF-8
    Codec ID                    : S_TEXT/UTF8
    Codec ID/Info               : UTF-8 Plain Text
    Duration                    : 1 h 50 min
    Bit rate                    : 27 b/s
    Count of elements           : 616
    Stream size                 : 22.5 KiB (0%)
    Title                       : Español-SRT [CinemaniaHDD]
    Language                    : Spanish
    Default                     : No
    Forced                      : No

    Menu
    00:00:00.000                : South America, 1936
    00:03:16.530                : The Man with the Hat
    00:05:44.636                : The Golden Idol
    00:09:51.132                : Belloq and the Hovitos
    00:12:49.352                : Archaeology Lesson
    00:15:23.631                : Special Assignment
    00:20:27.435                : Cautious Guy
    00:22:58.419                : Nepal: The Raven
    00:28:51.355                : Fight for the Medallion
    00:33:42.395                : To Cairo
    00:36:23.390                : The Marketplace
    00:40:04.819                : Basket Chase
    00:42:16.159                : Meeting with Belloq
    00:46:41.507                : Bad Dates
    00:49:32.928                : Tanis Dig
    00:51:00.933                : The Map Room
    00:55:11.141                : Reunited with Marion
    00:58:33.218                : Uncovering the Well of Souls
    01:03:05.740                : Into the Well of Souls
    01:08:26.144                : The Ark Revealed
    01:10:25.346                : Trapped
    01:15:33.154                : The Flying Wing
    01:22:24.356                : Desert Chase
    01:25:43.764                : Dragged Behind
    01:29:57.517                : The Bantu Wind
    01:34:30.665                : Confrontation at Sea
    01:38:06.172                : The Nazis' Secret Island
    01:41:06.060                : Indy's Bluff
    01:44:06.824                : The Ark Ceremony
    01:47:01.415                : The Power of the Ark
    01:49:05.998                : Washington D.C. and End Credits

  • Peso: 32.6 GiB

Sinopsis

Descargar Indiana Jones Y Los Cazadores Del Arca Perdida (1981) REMUX 1080p Latino. Año 1936. Indiana Jones es un profesor de arqueología, dispuesto a correr peligrosas aventuras con tal de conseguir valiosas reliquias históricas. Después de una infructuosa misión en Sudamérica, el gobierno estadounidense le encarga la búsqueda del Arca de la Alianza, donde se conservan las Tablas de la Ley que Dios entregó a Moisés. Según la leyenda, quien las posea tendrá un poder absoluto, razón por la cual también la buscan los nazis.

Audio Español Latino AC3 5.1 ReDub BD + EAC3 NF + AC3 2.0 Dub Org – Ingles TrueHD 7.1 + AC3 5.1 BD

Nota:
Proximamente Para Usuarios Free, Disponible Solo Para VIP!! 🙂

Ficha técnica

Video trailer de la película

Enlaces de descarga

Rip de Bluray

Descargar Indiana Jones Y Los Cazadores Del Arca Perdida (1981) REMUX 1080p Latino


Aportes de DPeliculasHDmega la pass es:dpeliculashdmega.org Aportes de CinemaniaHD la pass es:cinemaniahdd.com
Guardado en : Acción , Aventura , Remux
Etiquetado en :

Películas relacionadas

  • Wire Room (2022) HD 1080p Latino

    Wire Room (2022) HD 1080p Latino

    2022
    Wire Room (2022) HD 1080p Latino

    1h 37m 2022

    Descargar Wire Room (2022) HD 1080p Latino. Mientras está de servicio en la sala de cables, un agente...

    Director: Matt Eskandari

    Género: Acción

    Actores: Texas Battle

  • Wire Room (2022) PLACEBO Full HD 1080p Latino

    Wire Room (2022) PLACEBO Full HD 1080p Latino

    2022
    Wire Room (2022) PLACEBO Full HD 1080p Latino

    1h 37m 2022

    Descargar Wire Room (2022) PLACEBO Full HD 1080p Latino. Mientras está de servicio en la sala de cables,...

    Director: Matt Eskandari

    Género: Acción

    Actores: Texas Battle

  • Wire Room (2022) REMUX 1080p Latino

    Wire Room (2022) REMUX 1080p Latino

    2022
    Wire Room (2022) REMUX 1080p Latino

    1h 37m 2022

    Descargar Wire Room (2022) REMUX 1080p Latino. Mientras está de servicio en la sala de cables, un agente...

    Director: Matt Eskandari

    Género: Acción

    Actores: Texas Battle

  • Alarido (2022) REMUX 1080p Latino

    Alarido (2022) REMUX 1080p Latino

    2022
    Alarido (2022) REMUX 1080p Latino

    1h 29m 2022

    Descargar Alarido (2022) REMUX 1080p Latino. Una joven madre soltera es cautiva junto con sus dos hijos...

    Director: D.J. Caruso

    Género: Remux

    Actores: Vincent Gallo

  • El Cuartel Secreto (2022) WEB-DL 4K UHD HDR Latino

    El Cuartel Secreto (2022) WEB-DL 4K UHD HDR Latino

    2022
    El Cuartel Secreto (2022) WEB-DL 4K UHD HDR Latino

    1h 44m 2022

    Descargar El Cuartel Secreto (2022) WEB-DL 4K UHD HDR Latino. Mientras pasan el rato después de la escuela,...

    Director: Henry Joost

    Género: 4K HDR

    Actores: Zeb Slone

descargar Indiana Jones Y Los Cazadores Del Arca Perdida (1981) REMUX 1080p Latino Full 1080p 1080p gratis, Indiana Jones Y Los Cazadores Del Arca Perdida (1981) REMUX 1080p Latino Full 1080p mega 1 link, Indiana Jones Y Los Cazadores Del Arca Perdida (1981) REMUX 1080p Latino Full 1080p pelicula completa, descargar Indiana Jones Y Los Cazadores Del Arca Perdida (1981) REMUX 1080p Latino Full 1080p gratis en mega.

Indiana Jones Y Los Cazadores Del Arca Perdida (1981) REMUX 1080p Latino pelicula full hd, Indiana Jones Y Los Cazadores Del Arca Perdida (1981) REMUX 1080p Latino mega latino, Indiana Jones Y Los Cazadores Del Arca Perdida (1981) REMUX 1080p Latino 4k latino, Indiana Jones Y Los Cazadores Del Arca Perdida (1981) REMUX 1080p Latino pelicula completa, Indiana Jones Y Los Cazadores Del Arca Perdida (1981) REMUX 1080p Latino descargar gratis, descargar Indiana Jones Y Los Cazadores Del Arca Perdida (1981) REMUX 1080p Latino pelicula latino, Indiana Jones Y Los Cazadores Del Arca Perdida (1981) REMUX 1080p Latino 1 link mega, Indiana Jones Y Los Cazadores Del Arca Perdida (1981) REMUX 1080p Latino 1 link google drive, Indiana Jones Y Los Cazadores Del Arca Perdida (1981) REMUX 1080p Latino hd 1080p latino.
Comentarios 0