×

¿Problemas para descargar con Mozilla, EDGE? Deshabilita la opción "Abrir vinculos en una pestaña nueva" tal como lo muestra ésta imagen.

Indiana Jones Y Los Cazadores Del Arca Perdida (1981) 1080p Latino

368 vistas

Información de Indiana Jones Y Los Cazadores Del Arca Perdida (1981) 1080p Latino

Datos de la película

  • Calidad: 1080p
  • Audio: Se especifica abajo de la Sinopsis
  • Subtitulos: Español Latino SRT - Ingles SRT
  • Resolución: 1920x816p
  • Formato: MKV
  • Codec: H.264
  • Encoder: CinefiloCool
  • Mediainfo: Clic para Mostrar Datos Ver
  • Indiana Jones Los Cazadores del Arca Perdida (1981) 1080p Latino-CMHDD.mkv
    Format                      : Matroska
    Format version              : Version 4
    File size                   : 4.84 GiB
    Duration                    : 1 h 55 min
    Overall bit rate            : 6 005 kb/s
    Movie name                  : Indiana Jones: And The Raiders Of The Lost Ark (1981) CinemaniaHDD.Net
    Encoded date                : UTC 2021-06-28 03:27:49
    Writing application         : mkvmerge v56.1.0 ('My Friend') 64-bit
    Writing library             : libebml v1.4.2 + libmatroska v1.6.4
    Attachments                 : CINEMANIAHD.png

    Video
    ID                          : 1
    Format                      : AVC
    Format/Info                 : Advanced Video Codec
    Format profile              : High@L4.1
    Format settings             : CABAC / 4 Ref Frames
    Format settings, CABAC      : Yes
    Format settings, Reference  : 4 frames
    Codec ID                    : V_MPEG4/ISO/AVC
    Duration                    : 1 h 55 min
    Bit rate                    : 4 500 kb/s
    Width                       : 1 920 pixels
    Height                      : 816 pixels
    Display aspect ratio        : 2.35:1
    Frame rate mode             : Constant
    Frame rate                  : 23.976 (24000/1001) FPS
    Color space                 : YUV
    Chroma subsampling          : 4:2:0
    Bit depth                   : 8 bits
    Scan type                   : Progressive
    Bits/(Pixel*Frame)          : 0.120
    Stream size                 : 3.62 GiB (75%)
    Title                       : HD1080p [CinemaniaHDD]
    Writing library             : x264 core 142 r2479 dd79a61
    Encoding settings           : cabac=1 / ref=3 / deblock=1:-1:-1 / analyse=0x3:0x113 / me=hex / subme=7 / psy=1 / psy_rd=1.00:0.15 / mixed_ref=1 / me_range=16 / chroma_me=1 / trellis=1 / 8x8dct=1 / cqm=0 / deadzone=21,11 / fast_pskip=1 / chroma_qp_offset=-3 / threads=12 / lookahead_threads=2 / sliced_threads=0 / nr=0 / decimate=1 / interlaced=0 / bluray_compat=0 / constrained_intra=0 / bframes=3 / b_pyramid=2 / b_adapt=1 / b_bias=0 / direct=1 / weightb=1 / open_gop=0 / weightp=2 / keyint=240 / keyint_min=24 / scenecut=40 / intra_refresh=0 / rc_lookahead=40 / rc=2pass / mbtree=1 / bitrate=4500 / ratetol=1.0 / qcomp=0.60 / qpmin=0 / qpmax=69 / qpstep=4 / cplxblur=20.0 / qblur=0.5 / vbv_maxrate=62500 / vbv_bufsize=78125 / nal_hrd=none / filler=0 / ip_ratio=1.40 / aq=1:1.00
    Default                     : Yes
    Forced                      : Yes
    Color range                 : Limited
    Color primaries             : BT.709
    Transfer characteristics    : BT.709
    Matrix coefficients         : BT.709

    Audio #1
    ID                          : 2
    Format                      : AC-3
    Format/Info                 : Audio Coding 3
    Commercial name             : Dolby Digital
    Codec ID                    : A_AC3
    Duration                    : 1 h 55 min
    Bit rate mode               : Constant
    Bit rate                    : 640 kb/s
    Channel(s)                  : 6 channels
    Channel layout              : L R C LFE Ls Rs
    Sampling rate               : 48.0 kHz
    Frame rate                  : 31.250 FPS (1536 SPF)
    Compression mode            : Lossy
    Delay relative to video     : -83 ms
    Stream size                 : 528 MiB (11%)
    Title                       : Español Latino REDUB [CinemaniaHDD]
    Language                    : Spanish
    Service kind                : Complete Main
    Default                     : Yes
    Forced                      : Yes

    Audio #2
    ID                          : 3
    Format                      : AC-3
    Format/Info                 : Audio Coding 3
    Commercial name             : Dolby Digital
    Codec ID                    : A_AC3
    Duration                    : 1 h 55 min
    Bit rate mode               : Constant
    Bit rate                    : 224 kb/s
    Channel(s)                  : 2 channels
    Channel layout              : L R
    Sampling rate               : 48.0 kHz
    Frame rate                  : 31.250 FPS (1536 SPF)
    Compression mode            : Lossy
    Delay relative to video     : -83 ms
    Stream size                 : 185 MiB (4%)
    Title                       : Español Latino ORG [CinemaniaHDD]
    Language                    : Spanish
    Service kind                : Complete Main
    Default                     : No
    Forced                      : No

    Audio #3
    ID                          : 4
    Format                      : AC-3
    Format/Info                 : Audio Coding 3
    Commercial name             : Dolby Digital
    Codec ID                    : A_AC3
    Duration                    : 1 h 55 min
    Bit rate mode               : Constant
    Bit rate                    : 640 kb/s
    Channel(s)                  : 6 channels
    Channel layout              : L R C LFE Ls Rs
    Sampling rate               : 48.0 kHz
    Frame rate                  : 31.250 FPS (1536 SPF)
    Compression mode            : Lossy
    Delay relative to video     : -83 ms
    Stream size                 : 528 MiB (11%)
    Title                       : Ingles [CinemaniaHDD]
    Language                    : English
    Service kind                : Complete Main
    Default                     : No
    Forced                      : No

    Text #1
    ID                          : 5
    Format                      : UTF-8
    Codec ID                    : S_TEXT/UTF8
    Codec ID/Info               : UTF-8 Plain Text
    Duration                    : 1 h 48 min
    Bit rate                    : 0 b/s
    Count of elements           : 4
    Stream size                 : 48.0 Bytes (0%)
    Title                       : Forzados-SRT [CinemaniaHDD]
    Language                    : Spanish
    Default                     : Yes
    Forced                      : Yes

    Text #2
    ID                          : 6
    Format                      : UTF-8
    Codec ID                    : S_TEXT/UTF8
    Codec ID/Info               : UTF-8 Plain Text
    Duration                    : 1 h 50 min
    Bit rate                    : 27 b/s
    Count of elements           : 616
    Stream size                 : 22.5 KiB (0%)
    Title                       : Español-SRT [CinemaniaHDD]
    Language                    : Spanish
    Default                     : No
    Forced                      : No

    Text #3
    ID                          : 7
    Format                      : UTF-8
    Codec ID                    : S_TEXT/UTF8
    Codec ID/Info               : UTF-8 Plain Text
    Duration                    : 1 h 48 min
    Bit rate                    : 34 b/s
    Count of elements           : 1004
    Stream size                 : 27.2 KiB (0%)
    Title                       : Ingles-SRT [CinemaniaHDD]
    Language                    : English
    Default                     : No
    Forced                      : No

    Menu
    00:00:00.000                : South America, 1936
    00:03:16.530                : The Man with the Hat
    00:05:44.636                : The Golden Idol
    00:09:51.132                : Belloq and the Hovitos
    00:12:49.352                : Archaeology Lesson
    00:15:23.631                : Special Assignment
    00:20:27.435                : Cautious Guy
    00:22:58.419                : Nepal: The Raven
    00:28:51.355                : Fight for the Medallion
    00:33:42.395                : To Cairo
    00:36:23.390                : The Marketplace
    00:40:04.819                : Basket Chase
    00:42:16.159                : Meeting with Belloq
    00:46:41.507                : Bad Dates
    00:49:32.928                : Tanis Dig
    00:51:00.933                : The Map Room
    00:55:11.141                : Reunited with Marion
    00:58:33.218                : Uncovering the Well of Souls
    01:03:05.740                : Into the Well of Souls
    01:08:26.144                : The Ark Revealed
    01:10:25.346                : Trapped
    01:15:33.154                : The Flying Wing
    01:22:24.356                : Desert Chase
    01:25:43.764                : Dragged Behind
    01:29:57.517                : The Bantu Wind
    01:34:30.665                : Confrontation at Sea
    01:38:06.172                : The Nazis' Secret Island
    01:41:06.060                : Indy's Bluff
    01:44:06.824                : The Ark Ceremony
    01:47:01.415                : The Power of the Ark
    01:49:05.998                : Washington D.C. and End Credits

  • Peso: 4.84 GiB

Sinopsis

Descargar Indiana Jones Y Los Cazadores Del Arca Perdida (1981) 1080p Latino. Año 1936. Indiana Jones es un profesor de arqueología, dispuesto a correr peligrosas aventuras con tal de conseguir valiosas reliquias históricas. Después de una infructuosa misión en Sudamérica, el gobierno estadounidense le encarga la búsqueda del Arca de la Alianza, donde se conservan las Tablas de la Ley que Dios entregó a Moisés. Según la leyenda, quien las posea tendrá un poder absoluto, razón por la cual también la buscan los nazis.

Audio Español Latino AC3 5.1 ReDub BD + AC3 2.0 Dub Org – Ingles AC3 5.1 BD

Ficha técnica

Video trailer de la película

Enlaces de descarga

Rip de Bluray

Descargar Indiana Jones Y Los Cazadores Del Arca Perdida (1981) 1080p Latino




Aportes de DPeliculasHDmega la pass es:dpeliculashdmega.org Aportes de CinemaniaHD la pass es:cinemaniahdd.com
Guardado en : Acción , Aventura , HD 1080p

Películas relacionadas

  • Mi amigo el dragón (2016) Full HD 1080p Latino

    Mi amigo el dragón (2016) Full HD 1080p Latino

    2016
    Mi amigo el dragón (2016) Full HD 1080p Latino

    1h 43m 2016

    Descargar Mi amigo el dragón (2016) Full HD 1080p Latino. Durante años el Sr. Meacham, un viejo tallador...

    Director: Joe Nolan

    Género: Aventura

    Actores: William J. Rawbone

  • Mi amigo el dragón (2016) REMUX 1080p Latino

    Mi amigo el dragón (2016) REMUX 1080p Latino

    2016
    Mi amigo el dragón (2016) REMUX 1080p Latino

    1h 43m 2016

    Descargar Mi amigo el dragón (2016) REMUX 1080p Latino. Durante años el Sr. Meacham, un viejo tallador...

    Director: Joe Nolan

    Género: Aventura

    Actores: William J. Rawbone

  • El discurso del Rey (2010) 1080p Latino

    El discurso del Rey (2010) 1080p Latino

    2010
    El discurso del Rey (2010) 1080p Latino

    1h 58m 2010

    Descargar El discurso del Rey (2010) 1080p Latino. El duque de York se convirtió en rey de Gran Bretaña...

    Director: Tom Hooper

    Género: Drama

    Actores: Tony Earnshaw

  • Lucy (2014) REMUX 4K HDR Latino – CMHDD

    Lucy (2014) REMUX 4K HDR Latino – CMHDD

    2014
    Lucy (2014) REMUX 4K HDR Latino – CMHDD

    1h 30m 2014

    Lucy, una joven obligada a ejercer de mula de una nueva y potente droga, adquiere de repente enormes...

    Director: Luc Besson

    Género: Acción

    Actores: Wolfgang Pissors

descargar Indiana Jones Y Los Cazadores Del Arca Perdida (1981) 1080p Latino 1080p 1080p gratis, Indiana Jones Y Los Cazadores Del Arca Perdida (1981) 1080p Latino 1080p mega 1 link, Indiana Jones Y Los Cazadores Del Arca Perdida (1981) 1080p Latino 1080p pelicula completa, descargar Indiana Jones Y Los Cazadores Del Arca Perdida (1981) 1080p Latino 1080p gratis en mega.

Indiana Jones Y Los Cazadores Del Arca Perdida (1981) 1080p Latino pelicula full hd, Indiana Jones Y Los Cazadores Del Arca Perdida (1981) 1080p Latino mega latino, Indiana Jones Y Los Cazadores Del Arca Perdida (1981) 1080p Latino 4k latino, Indiana Jones Y Los Cazadores Del Arca Perdida (1981) 1080p Latino pelicula completa, Indiana Jones Y Los Cazadores Del Arca Perdida (1981) 1080p Latino descargar gratis, descargar Indiana Jones Y Los Cazadores Del Arca Perdida (1981) 1080p Latino pelicula latino, Indiana Jones Y Los Cazadores Del Arca Perdida (1981) 1080p Latino 1 link mega, Indiana Jones Y Los Cazadores Del Arca Perdida (1981) 1080p Latino 1 link google drive, Indiana Jones Y Los Cazadores Del Arca Perdida (1981) 1080p Latino hd 1080p latino.
Comentarios 0