×

¿Problemas para descargar con Mozilla, EDGE? Deshabilita la opción "Abrir vinculos en una pestaña nueva" tal como lo muestra ésta imagen.

Indiana Jones Y Los Cazadores Del Arca Perdida (1981) Full HD 1080p Latino

2.888 vistas

Información de Indiana Jones Y Los Cazadores Del Arca Perdida (1981) Full HD 1080p Latino

Datos de la película

  • Calidad: Full 1080p
  • Audio: Se especifica abajo de la Sinopsis
  • Subtitulos: Español Latino PGS - Ingles PGS
  • Resolución: 1920x1080p
  • Formato: MKV
  • Codec: H.264
  • Encoder: CinefiloCool
  • Mediainfo: Clic para Mostrar Datos Ver
  • Indiana Jones Los Cazadores del Arca Perdida (1981) Full HD 1080p Latino-CMHDD.mkv
    Format                      : Matroska
    Format version              : Version 4
    File size                   : 9.08 GiB
    Duration                    : 1 h 55 min
    Overall bit rate            : 11.3 Mb/s
    Movie name                  : Indiana Jones: And The Raiders Of The Lost Ark (1981) CinemaniaHDD.Net
    Encoded date                : UTC 2021-06-27 21:28:30
    Writing application         : mkvmerge v56.1.0 ('My Friend') 64-bit
    Writing library             : libebml v1.4.2 + libmatroska v1.6.4
    Attachments                 : CINEMANIAHD.png

    Video
    ID                          : 1
    Format                      : AVC
    Format/Info                 : Advanced Video Codec
    Format profile              : High@L4.1
    Format settings             : CABAC / 4 Ref Frames
    Format settings, CABAC      : Yes
    Format settings, Reference  : 4 frames
    Codec ID                    : V_MPEG4/ISO/AVC
    Duration                    : 1 h 55 min
    Bit rate                    : 9 751 kb/s
    Width                       : 1 920 pixels
    Height                      : 1 080 pixels
    Display aspect ratio        : 16:9
    Frame rate mode             : Constant
    Frame rate                  : 23.976 (24000/1001) FPS
    Color space                 : YUV
    Chroma subsampling          : 4:2:0
    Bit depth                   : 8 bits
    Scan type                   : Progressive
    Bits/(Pixel*Frame)          : 0.196
    Stream size                 : 7.85 GiB (87%)
    Title                       : Full HD1080p [CinemaniaHDD]
    Writing library             : x264 core 157 r2935 545de2f
    Encoding settings           : cabac=1 / ref=4 / deblock=1:0:0 / analyse=0x3:0x133 / me=tesa / subme=11 / psy=1 / psy_rd=1.00:0.00 / mixed_ref=1 / me_range=24 / chroma_me=1 / trellis=2 / 8x8dct=1 / cqm=0 / deadzone=21,11 / fast_pskip=0 / chroma_qp_offset=-2 / threads=24 / lookahead_threads=6 / sliced_threads=0 / nr=0 / decimate=1 / interlaced=0 / bluray_compat=0 / constrained_intra=0 / bframes=16 / b_pyramid=2 / b_adapt=2 / b_bias=0 / direct=3 / weightb=1 / open_gop=0 / weightp=2 / keyint=240 / keyint_min=24 / scenecut=40 / intra_refresh=0 / rc_lookahead=60 / rc=crf / mbtree=1 / crf=20.0 / qcomp=0.60 / qpmin=0 / qpmax=69 / qpstep=4 / vbv_maxrate=62500 / vbv_bufsize=78125 / crf_max=0.0 / nal_hrd=none / filler=0 / ip_ratio=1.40 / aq=1:1.00
    Default                     : Yes
    Forced                      : Yes
    Color range                 : Limited
    Color primaries             : BT.709
    Transfer characteristics    : BT.709
    Matrix coefficients         : BT.709

    Audio #1
    ID                          : 2
    Format                      : AC-3
    Format/Info                 : Audio Coding 3
    Commercial name             : Dolby Digital
    Codec ID                    : A_AC3
    Duration                    : 1 h 55 min
    Bit rate mode               : Constant
    Bit rate                    : 640 kb/s
    Channel(s)                  : 6 channels
    Channel layout              : L R C LFE Ls Rs
    Sampling rate               : 48.0 kHz
    Frame rate                  : 31.250 FPS (1536 SPF)
    Compression mode            : Lossy
    Stream size                 : 528 MiB (6%)
    Title                       : Español Latino REDUB [CinemaniaHDD]
    Language                    : Spanish
    Service kind                : Complete Main
    Default                     : Yes
    Forced                      : Yes

    Audio #2
    ID                          : 3
    Format                      : AC-3
    Format/Info                 : Audio Coding 3
    Commercial name             : Dolby Digital
    Codec ID                    : A_AC3
    Duration                    : 1 h 55 min
    Bit rate mode               : Constant
    Bit rate                    : 224 kb/s
    Channel(s)                  : 2 channels
    Channel layout              : L R
    Sampling rate               : 48.0 kHz
    Frame rate                  : 31.250 FPS (1536 SPF)
    Compression mode            : Lossy
    Stream size                 : 185 MiB (2%)
    Title                       : Español Latino ORG [CinemaniaHDD]
    Language                    : Spanish
    Service kind                : Complete Main
    Default                     : No
    Forced                      : No

    Audio #3
    ID                          : 4
    Format                      : AC-3
    Format/Info                 : Audio Coding 3
    Commercial name             : Dolby Digital
    Codec ID                    : A_AC3
    Duration                    : 1 h 55 min
    Bit rate mode               : Constant
    Bit rate                    : 640 kb/s
    Channel(s)                  : 6 channels
    Channel layout              : L R C LFE Ls Rs
    Sampling rate               : 48.0 kHz
    Frame rate                  : 31.250 FPS (1536 SPF)
    Compression mode            : Lossy
    Stream size                 : 528 MiB (6%)
    Title                       : Ingles AC3 [CinemaniaHDD]
    Language                    : English
    Service kind                : Complete Main
    Default                     : No
    Forced                      : No

    Text #1
    ID                          : 5
    Format                      : PGS
    Muxing mode                 : zlib
    Codec ID                    : S_HDMV/PGS
    Codec ID/Info               : Picture based subtitle format used on BDs/HD-DVDs
    Duration                    : 1 h 50 min
    Bit rate                    : 16.9 kb/s
    Count of elements           : 1232
    Stream size                 : 13.4 MiB (0%)
    Title                       : Español-PGS [CinemaniaHDD]
    Language                    : Spanish
    Default                     : No
    Forced                      : No

    Text #2
    ID                          : 6
    Format                      : PGS
    Muxing mode                 : zlib
    Codec ID                    : S_HDMV/PGS
    Codec ID/Info               : Picture based subtitle format used on BDs/HD-DVDs
    Duration                    : 1 h 48 min
    Bit rate                    : 21.9 kb/s
    Count of elements           : 2014
    Stream size                 : 17.0 MiB (0%)
    Title                       : Ingles-PGS [CinemaniaHDD]
    Language                    : English
    Default                     : No
    Forced                      : No

    Text #3
    ID                          : 7
    Format                      : UTF-8
    Codec ID                    : S_TEXT/UTF8
    Codec ID/Info               : UTF-8 Plain Text
    Duration                    : 1 h 48 min
    Bit rate                    : 0 b/s
    Count of elements           : 4
    Stream size                 : 48.0 Bytes (0%)
    Title                       : Forzados-SRT [CinemaniaHDD]
    Language                    : Spanish
    Default                     : Yes
    Forced                      : Yes

    Text #4
    ID                          : 8
    Format                      : UTF-8
    Codec ID                    : S_TEXT/UTF8
    Codec ID/Info               : UTF-8 Plain Text
    Duration                    : 1 h 50 min
    Bit rate                    : 27 b/s
    Count of elements           : 616
    Stream size                 : 22.5 KiB (0%)
    Title                       : Español-SRT [CinemaniaHDD]
    Language                    : Spanish
    Default                     : No
    Forced                      : No

    Menu
    00:00:00.000                : South America, 1936
    00:03:16.530                : The Man with the Hat
    00:05:44.636                : The Golden Idol
    00:09:51.132                : Belloq and the Hovitos
    00:12:49.352                : Archaeology Lesson
    00:15:23.631                : Special Assignment
    00:20:27.435                : Cautious Guy
    00:22:58.419                : Nepal: The Raven
    00:28:51.355                : Fight for the Medallion
    00:33:42.395                : To Cairo
    00:36:23.390                : The Marketplace
    00:40:04.819                : Basket Chase
    00:42:16.159                : Meeting with Belloq
    00:46:41.507                : Bad Dates
    00:49:32.928                : Tanis Dig
    00:51:00.933                : The Map Room
    00:55:11.141                : Reunited with Marion
    00:58:33.218                : Uncovering the Well of Souls
    01:03:05.740                : Into the Well of Souls
    01:08:26.144                : The Ark Revealed
    01:10:25.346                : Trapped
    01:15:33.154                : The Flying Wing
    01:22:24.356                : Desert Chase
    01:25:43.764                : Dragged Behind
    01:29:57.517                : The Bantu Wind
    01:34:30.665                : Confrontation at Sea
    01:38:06.172                : The Nazis' Secret Island
    01:41:06.060                : Indy's Bluff
    01:44:06.824                : The Ark Ceremony
    01:47:01.415                : The Power of the Ark
    01:49:05.998                : Washington D.C. and End Credits

  • Peso: 9.08 GiB

Sinopsis

Descargar Indiana Jones Y Los Cazadores Del Arca Perdida (1981) Full HD 1080p Latino. Año 1936. Indiana Jones es un profesor de arqueología, dispuesto a correr peligrosas aventuras con tal de conseguir valiosas reliquias históricas. Después de una infructuosa misión en Sudamérica, el gobierno estadounidense le encarga la búsqueda del Arca de la Alianza, donde se conservan las Tablas de la Ley que Dios entregó a Moisés. Según la leyenda, quien las posea tendrá un poder absoluto, razón por la cual también la buscan los nazis.

Audio Español Latino AC3 5.1 ReDub BD + AC3 2.0 Dub Org – Ingles AC3 5.1 BD
RESUBIDO NUEVO RIP VERSION PLACEBO!!!

 

Ficha técnica

Video trailer de la película

Enlaces de descarga

Rip de Bluray

Descargar Indiana Jones Y Los Cazadores Del Arca Perdida (1981) Full HD 1080p Latino




Aportes de DPeliculasHDmega la pass es:dpeliculashdmega.org Aportes de CinemaniaHD la pass es:cinemaniahdd.com

Películas relacionadas

  • La Guerra Del Futuro (2022) NF WEB-DL 1080p Latino

    La Guerra Del Futuro (2022) NF WEB-DL 1080p Latino

    2022
    La Guerra Del Futuro (2022) NF WEB-DL 1080p Latino

    1h 41m 2022

    Descargar La Guerra Del Futuro (2022) NF WEB-DL 1080p Latino. Tras la caída de un meteorito que alberga...

    Director: Ng Yuen-fai

    Género: Acción

    Actores: Tse Kwan-Ho

  • Super… ¿quién? (2021) HD 1080p Latino

    Super… ¿quién? (2021) HD 1080p Latino

    2022
    Super… ¿quién? (2021) HD 1080p Latino

    1h 22m 2022

    Descargar Super... ¿quién? (2021) HD 1080p Latino. Cedric (Philippe Lacheau) intenta ganarse la vida...

    Director: Philippe Lacheau

    Género: Acción

    Actores: Yves Yan

  • Super… ¿quién? (2021) REMUX 1080p Latino

    Super… ¿quién? (2021) REMUX 1080p Latino

    2022
    Super… ¿quién? (2021) REMUX 1080p Latino

    1h 22m 2022

    Descargar Super... ¿quién? (2021) REMUX 1080p Latino. Cedric (Philippe Lacheau) intenta ganarse la...

    Director: Philippe Lacheau

    Género: Acción

    Actores: Yves Yan

  • Trol (2022) NF WEB-DL 1080p Latino

    Trol (2022) NF WEB-DL 1080p Latino

    2022
    Trol (2022) NF WEB-DL 1080p Latino

    1h 43m 2022

    Las autoridades recurren a una audaz paleontóloga para evitar que un trol ancestral, al que ha despertado...

    Director: Sascha Marden

    Género: Acción

    Actores: Yusuf Toosh Ibra

descargar Indiana Jones Y Los Cazadores Del Arca Perdida (1981) Full HD 1080p Latino Full 1080p 1080p gratis, Indiana Jones Y Los Cazadores Del Arca Perdida (1981) Full HD 1080p Latino Full 1080p mega 1 link, Indiana Jones Y Los Cazadores Del Arca Perdida (1981) Full HD 1080p Latino Full 1080p pelicula completa, descargar Indiana Jones Y Los Cazadores Del Arca Perdida (1981) Full HD 1080p Latino Full 1080p gratis en mega.

Indiana Jones Y Los Cazadores Del Arca Perdida (1981) Full HD 1080p Latino pelicula full hd, Indiana Jones Y Los Cazadores Del Arca Perdida (1981) Full HD 1080p Latino mega latino, Indiana Jones Y Los Cazadores Del Arca Perdida (1981) Full HD 1080p Latino 4k latino, Indiana Jones Y Los Cazadores Del Arca Perdida (1981) Full HD 1080p Latino pelicula completa, Indiana Jones Y Los Cazadores Del Arca Perdida (1981) Full HD 1080p Latino descargar gratis, descargar Indiana Jones Y Los Cazadores Del Arca Perdida (1981) Full HD 1080p Latino pelicula latino, Indiana Jones Y Los Cazadores Del Arca Perdida (1981) Full HD 1080p Latino 1 link mega, Indiana Jones Y Los Cazadores Del Arca Perdida (1981) Full HD 1080p Latino 1 link google drive, Indiana Jones Y Los Cazadores Del Arca Perdida (1981) Full HD 1080p Latino hd 1080p latino.
Comentarios 1
  • criss - 24 junio, 2018

    gracias por las 4 películas