×

¿Problemas para descargar con Mozilla, EDGE? Deshabilita la opción "Abrir vinculos en una pestaña nueva" tal como lo muestra ésta imagen.

Cara A Cara: Raging Fire (2021) PLACEBO Full HD 1080p Latino

30 vistas

Información de Cara A Cara: Raging Fire (2021) PLACEBO Full HD 1080p Latino

Datos de la película

  • Calidad: Full 1080p
  • Audio: Se especifica abajo de la Sinopsis
  • Subtitulos: Español Latino SRT- FORZADOS SRT
  • Resolución: 1920x1080p
  • Formato: MKV
  • Codec: H.264
  • Encoder: Melkor
  • Mediainfo: Clic para Mostrar Datos Ver
  • Cara A Cara. Raging Fire (2021) PLACEBO 1080p Latino.mkv
    Format                      : Matroska
    Format version              : Version 4
    File size                   : 8.39 GiB
    Duration                    : 2 h 5 min
    Overall bit rate mode       : Variable
    Overall bit rate            : 9 545 kb/s
    Movie name                  : Raging Fire (2021) [Nou Fu] CinemaniaHDD.Net
    Encoded date                : UTC 2022-11-15 16:30:20
    Writing application         : mkvmerge v56.1.0 ('My Friend') 64-bit
    Writing library             : libebml v1.4.2 + libmatroska v1.6.4
    Attachments                 : CINEMANIAHD.png

    Video
    ID                          : 1
    Format                      : AVC
    Format/Info                 : Advanced Video Codec
    Format profile              : High@L4.1
    Format settings             : CABAC / 4 Ref Frames
    Format settings, CABAC      : Yes
    Format settings, Reference  : 4 frames
    Codec ID                    : V_MPEG4/ISO/AVC
    Duration                    : 2 h 5 min
    Bit rate                    : 4 424 kb/s
    Width                       : 1 920 pixels
    Height                      : 1 080 pixels
    Display aspect ratio        : 16:9
    Frame rate mode             : Constant
    Frame rate                  : 24.000 FPS
    Color space                 : YUV
    Chroma subsampling          : 4:2:0
    Bit depth                   : 8 bits
    Scan type                   : Progressive
    Bits/(Pixel*Frame)          : 0.089
    Stream size                 : 3.89 GiB (46%)
    Title                       : Full HD1080p [CinemaniaHDD]
    Writing library             : x264 core 163 r3059 b684ebe0
    Encoding settings           : cabac=1 / ref=4 / deblock=1:0:0 / analyse=0x3:0x133 / me=tesa / subme=11 / psy=1 / psy_rd=1.00:0.00 / mixed_ref=1 / me_range=24 / chroma_me=1 / trellis=2 / 8x8dct=1 / cqm=0 / deadzone=21,11 / fast_pskip=0 / chroma_qp_offset=-2 / threads=24 / lookahead_threads=6 / sliced_threads=0 / nr=0 / decimate=1 / interlaced=0 / bluray_compat=0 / constrained_intra=0 / bframes=16 / b_pyramid=2 / b_adapt=2 / b_bias=0 / direct=3 / weightb=1 / open_gop=0 / weightp=2 / keyint=240 / keyint_min=24 / scenecut=40 / intra_refresh=0 / rc_lookahead=60 / rc=crf / mbtree=1 / crf=19.0 / qcomp=0.60 / qpmin=0 / qpmax=69 / qpstep=4 / vbv_maxrate=62500 / vbv_bufsize=78125 / crf_max=0.0 / nal_hrd=none / filler=0 / ip_ratio=1.40 / aq=1:1.00
    Default                     : Yes
    Forced                      : Yes
    Color range                 : Limited
    Color primaries             : BT.709
    Transfer characteristics    : BT.709
    Matrix coefficients         : BT.709

    Audio #1
    ID                          : 2
    Format                      : AC-3
    Format/Info                 : Audio Coding 3
    Commercial name             : Dolby Digital
    Codec ID                    : A_AC3
    Duration                    : 2 h 5 min
    Bit rate mode               : Constant
    Bit rate                    : 448 kb/s
    Channel(s)                  : 6 channels
    Channel layout              : L R C LFE Ls Rs
    Sampling rate               : 48.0 kHz
    Frame rate                  : 31.250 FPS (1536 SPF)
    Compression mode            : Lossy
    Stream size                 : 403 MiB (5%)
    Title                       : Español Latino [CinemaniaHDD]
    Language                    : Spanish
    Service kind                : Complete Main
    Default                     : Yes
    Forced                      : Yes

    Audio #2
    ID                          : 3
    Format                      : MLP FBA
    Format/Info                 : Meridian Lossless Packing FBA
    Commercial name             : Dolby TrueHD
    Codec ID                    : A_TRUEHD
    Duration                    : 2 h 5 min
    Bit rate mode               : Variable
    Bit rate                    : 3 955 kb/s
    Maximum bit rate            : 7 236 kb/s
    Channel(s)                  : 8 channels
    Channel layout              : L R C LFE Ls Rs Lb Rb
    Sampling rate               : 96.0 kHz
    Frame rate                  : 1 200.000 FPS (80 SPF)
    Compression mode            : Lossless
    Stream size                 : 3.48 GiB (41%)
    Title                       : Chino [CinemaniaHDD]
    Language                    : Chinese
    Default                     : No
    Forced                      : No

    Audio #3
    ID                          : 4
    Format                      : AC-3
    Format/Info                 : Audio Coding 3
    Commercial name             : Dolby Digital
    Format settings             : Dolby Surround EX
    Codec ID                    : A_AC3
    Duration                    : 2 h 5 min
    Bit rate mode               : Constant
    Bit rate                    : 640 kb/s
    Channel(s)                  : 6 channels
    Channel layout              : L R C LFE Ls Rs
    Sampling rate               : 48.0 kHz
    Frame rate                  : 31.250 FPS (1536 SPF)
    Compression mode            : Lossy
    Stream size                 : 576 MiB (7%)
    Title                       : Chino-AC3 [CinemaniaHDD]
    Language                    : Chinese
    Service kind                : Complete Main
    Default                     : No
    Forced                      : No

    Text #1
    ID                          : 5
    Format                      : UTF-8
    Codec ID                    : S_TEXT/UTF8
    Codec ID/Info               : UTF-8 Plain Text
    Duration                    : 1 h 58 min
    Bit rate                    : 0 b/s
    Count of elements           : 10
    Stream size                 : 243 Bytes (0%)
    Title                       : Forzados-SRT [CinemaniaHDD]
    Language                    : Spanish
    Default                     : Yes
    Forced                      : Yes

    Text #2
    ID                          : 6
    Format                      : UTF-8
    Codec ID                    : S_TEXT/UTF8
    Codec ID/Info               : UTF-8 Plain Text
    Duration                    : 1 h 58 min
    Bit rate                    : 41 b/s
    Count of elements           : 1152
    Stream size                 : 36.6 KiB (0%)
    Title                       : Español-SRT [CinemaniaHDD]
    Language                    : Spanish
    Default                     : No
    Forced                      : No

    Text #3
    ID                          : 7
    Format                      : PGS
    Muxing mode                 : zlib
    Codec ID                    : S_HDMV/PGS
    Codec ID/Info               : Picture based subtitle format used on BDs/HD-DVDs
    Duration                    : 1 h 56 min
    Bit rate                    : 31.4 kb/s
    Count of elements           : 2049
    Stream size                 : 26.1 MiB (0%)
    Title                       : Ingles [CinemaniaHDD]
    Language                    : English
    Default                     : No
    Forced                      : No

    Menu
    00:00:00.000                : :Chapter 01
    00:10:25.750                : :Chapter 02
    00:20:19.000                : :Chapter 03
    00:30:07.958                : :Chapter 04
    00:38:49.875                : :Chapter 05
    00:52:53.250                : :Chapter 06
    01:02:53.375                : :Chapter 07
    01:13:14.542                : :Chapter 08
    01:26:47.542                : :Chapter 09
    01:34:34.708                : :Chapter 10
    01:43:26.750                : :Chapter 11
    01:52:06.750                : :Chapter 12

  • Peso: 8.39 GiB

Sinopsis

Descargar Cara A Cara: Raging Fire (2021) PLACEBO Full HD 1080p Latino. Shan es un policía honrado que es admirado por todo el cuerpo por haber resuelto muchos casos. Un día, su pasado regresa para atormentarle; en plena operación es atacado por un misterioso grupo de criminales liderado por Ngo, que fue su discípulo.

Español Latino AC3 5.1 Web – Chino TrueHD 7.1 & AC3 5.1 BD

Ficha técnica

Video trailer de la película

Enlaces de descarga

Rip de Bluray

Descargar Cara A Cara: Raging Fire (2021) PLACEBO Full HD 1080p Latino




Aportes de DPeliculasHDmega la pass es:dpeliculashdmega.org Aportes de CinemaniaHD la pass es:cinemaniahdd.com

Películas relacionadas

descargar Cara A Cara: Raging Fire (2021) PLACEBO Full HD 1080p Latino Full 1080p 1080p gratis, Cara A Cara: Raging Fire (2021) PLACEBO Full HD 1080p Latino Full 1080p mega 1 link, Cara A Cara: Raging Fire (2021) PLACEBO Full HD 1080p Latino Full 1080p pelicula completa, descargar Cara A Cara: Raging Fire (2021) PLACEBO Full HD 1080p Latino Full 1080p gratis en mega.

Cara A Cara: Raging Fire (2021) PLACEBO Full HD 1080p Latino pelicula full hd, Cara A Cara: Raging Fire (2021) PLACEBO Full HD 1080p Latino mega latino, Cara A Cara: Raging Fire (2021) PLACEBO Full HD 1080p Latino 4k latino, Cara A Cara: Raging Fire (2021) PLACEBO Full HD 1080p Latino pelicula completa, Cara A Cara: Raging Fire (2021) PLACEBO Full HD 1080p Latino descargar gratis, descargar Cara A Cara: Raging Fire (2021) PLACEBO Full HD 1080p Latino pelicula latino, Cara A Cara: Raging Fire (2021) PLACEBO Full HD 1080p Latino 1 link mega, Cara A Cara: Raging Fire (2021) PLACEBO Full HD 1080p Latino 1 link google drive, Cara A Cara: Raging Fire (2021) PLACEBO Full HD 1080p Latino hd 1080p latino.
Comentarios 0