×

¿Problemas para descargar con Mozilla, EDGE? Deshabilita la opción "Abrir vinculos en una pestaña nueva" tal como lo muestra ésta imagen.

Radical (2023) WEB-DL 1080p Latino

94 vistas

Información de Radical (2023) WEB-DL 1080p Latino

Datos de la película

  • Calidad: WEBDL
  • Audio: Se especifica abajo de la Sinopsis
  • Subtitulos: Español Latino SRT- FORZADOS SRT
  • Resolución: 1920x1080p
  • Formato: MKV
  • Codec: H.264
  • Encoder: Melkor
  • Mediainfo: Clic para Mostrar Datos Ver
  • Radical (2023) WEB 1080p Latino.mkv
    Format                      : Matroska
    Format version              : Version 4
    File size                   : 8.50 GiB
    Duration                    : 2 h 5 min
    Overall bit rate            : 9 694 kb/s
    Movie name                  : Radical (2023) CinemaniaHDD.Net
    Encoded date                : UTC 2024-01-27 05:23:16
    Writing application         : mkvmerge v56.1.0 ('My Friend') 64-bit
    Writing library             : libebml v1.4.2 + libmatroska v1.6.4
    Attachments                 : CINEMANIAHD.png
    Site                        : CinemaniaHDD.Net
    Uploader                    : Melkor

    Video
    ID                          : 1
    Format                      : AVC
    Format/Info                 : Advanced Video Codec
    Format profile              : High@L4
    Format settings             : CABAC / 4 Ref Frames
    Format settings, CABAC      : Yes
    Format settings, Reference  : 4 frames
    Codec ID                    : V_MPEG4/ISO/AVC
    Duration                    : 2 h 5 min
    Bit rate mode               : Constant
    Bit rate                    : 9 116 kb/s
    Nominal bit rate            : 10 000 kb/s
    Width                       : 1 920 pixels
    Height                      : 1 080 pixels
    Display aspect ratio        : 16:9
    Frame rate mode             : Constant
    Frame rate                  : 23.976 (24000/1001) FPS
    Color space                 : YUV
    Chroma subsampling          : 4:2:0
    Bit depth                   : 8 bits
    Scan type                   : Progressive
    Bits/(Pixel*Frame)          : 0.183
    Stream size                 : 7.99 GiB (94%)
    Title                       : WEB HD1080p [CinemaniaHDD]
    Default                     : Yes
    Forced                      : Yes
    Color range                 : Limited
    Color primaries             : BT.709
    Transfer characteristics    : BT.709
    Matrix coefficients         : BT.709

    Audio #1
    ID                          : 2
    Format                      : AC-3
    Format/Info                 : Audio Coding 3
    Commercial name             : Dolby Digital
    Codec ID                    : A_AC3
    Duration                    : 2 h 5 min
    Bit rate mode               : Constant
    Bit rate                    : 256 kb/s
    Channel(s)                  : 2 channels
    Channel layout              : L R
    Sampling rate               : 48.0 kHz
    Frame rate                  : 31.250 FPS (1536 SPF)
    Compression mode            : Lossy
    Stream size                 : 230 MiB (3%)
    Title                       : Español Latino AC3 [CinemaniaHDD]
    Language                    : Spanish
    Service kind                : Complete Main
    Default                     : Yes
    Forced                      : Yes

    Audio #2
    ID                          : 3
    Format                      : E-AC-3
    Format/Info                 : Enhanced AC-3
    Commercial name             : Dolby Digital Plus
    Codec ID                    : A_EAC3
    Duration                    : 2 h 5 min
    Bit rate mode               : Constant
    Bit rate                    : 320 kb/s
    Channel(s)                  : 2 channels
    Channel layout              : L R
    Sampling rate               : 48.0 kHz
    Frame rate                  : 31.250 FPS (1536 SPF)
    Compression mode            : Lossy
    Stream size                 : 287 MiB (3%)
    Title                       : Español Latino EAC3 [CinemaniaHDD]
    Language                    : Spanish
    Service kind                : Complete Main
    Default                     : No
    Forced                      : No

    Text #1
    ID                          : 4
    Format                      : UTF-8
    Codec ID                    : S_TEXT/UTF8
    Codec ID/Info               : UTF-8 Plain Text
    Duration                    : 10 s 0 ms
    Bit rate                    : 65 b/s
    Count of elements           : 1
    Stream size                 : 82.0 Bytes (0%)
    Title                       : Forzados-SRT [CinemaniaHDD]
    Language                    : Spanish
    Default                     : Yes
    Forced                      : No

    Text #2
    ID                          : 5
    Format                      : UTF-8
    Codec ID                    : S_TEXT/UTF8
    Codec ID/Info               : UTF-8 Plain Text
    Duration                    : 2 h 3 min
    Bit rate                    : 64 b/s
    Count of elements           : 1831
    Stream size                 : 58.3 KiB (0%)
    Title                       : Español-SRT [CinemaniaHDD]
    Language                    : Spanish
    Default                     : No
    Forced                      : No

  • Peso: 8.50 GiB

Sinopsis

Descargar Radical (2023) WEB-DL 1080p Latino. En una ciudad fronteriza mexicana plagada de abandono, corrupción y violencia, un profesor frustrado prueba un nuevo método radical para romper la apatía de sus alumnos y desbloquear su curiosidad, su potencial… y puede que incluso su genialidad. Basada en una historia real.

Español Latino EAC3 & AC3 2.0 Web

Ficha técnica

  • Titulo original: Radical
  • Fecha de lanzamiento: 19-10-2023 (Mexico, United States of America)
  • Director: Christopher Zalla
  • Género: Drama

Video trailer de la película

Enlaces de descarga

Rip de Bluray

Descargar Radical (2023) WEB-DL 1080p Latino




Aportes de DPeliculasHDmega la pass es:dpeliculashdmega.org Aportes de CinemaniaHD la pass es:cinemaniahdd.com Aportes recientes:cinemaniahdd.net
Guardado en : Drama

Películas relacionadas

descargar Radical (2023) WEB-DL 1080p Latino WEBDL 1080p gratis, Radical (2023) WEB-DL 1080p Latino WEBDL mega 1 link, Radical (2023) WEB-DL 1080p Latino WEBDL pelicula completa, descargar Radical (2023) WEB-DL 1080p Latino WEBDL gratis en mega.

Radical (2023) WEB-DL 1080p Latino pelicula full hd, Radical (2023) WEB-DL 1080p Latino mega latino, Radical (2023) WEB-DL 1080p Latino 4k latino, Radical (2023) WEB-DL 1080p Latino pelicula completa, Radical (2023) WEB-DL 1080p Latino descargar gratis, descargar Radical (2023) WEB-DL 1080p Latino pelicula latino, Radical (2023) WEB-DL 1080p Latino 1 link mega, Radical (2023) WEB-DL 1080p Latino 1 link google drive, Radical (2023) WEB-DL 1080p Latino hd 1080p latino.
Comentarios 0