×

¿Problemas para descargar con Mozilla, EDGE? Deshabilita la opción "Abrir vinculos en una pestaña nueva" tal como lo muestra ésta imagen.

R.I.P.D.: Policía del más allá (2013) REMUX 1080p Latino

278 vistas

Información de R.I.P.D.: Policía del más allá (2013) REMUX 1080p Latino

Datos de la película

  • Calidad: Full 1080p
  • Audio: Español Latino DTS 5.1 BLURAY - Ingles DTS-HD 5.1 BLURAY
  • Subtitulos: Español Latino PGS - Ingles PGS
  • Resolución: 1920x1080p
  • Formato: MKV
  • Codec: H.264
  • Encoder: Cinefilocool
  • Mediainfo: Clic para Mostrar Datos Ver
  • R.I.P.D. Policias Del Mas Alla (2013) REMUX 1080p Latino-CMHDD.mkv
    Format                      : Matroska
    Format version              : Version 4
    File size                   : 23.1 GiB
    Duration                    : 1 h 35 min
    Overall bit rate mode       : Variable
    Overall bit rate            : 34.6 Mb/s
    Movie name                  : R.I.P.D. (2013) CinemaniaHDD.Net
    Encoded date                : UTC 2022-05-23 07:34:33
    Writing application         : mkvmerge v56.1.0 ('My Friend') 64-bit
    Writing library             : libebml v1.4.2 + libmatroska v1.6.4
    Attachments                 : CINEMANIAHD.png

    Video
    ID                          : 1
    ID in the original source m : 4113 (0x1011)
    Format                      : AVC
    Format/Info                 : Advanced Video Codec
    Format profile              : High@L4.1
    Format settings             : CABAC / 4 Ref Frames
    Format settings, CABAC      : Yes
    Format settings, Reference  : 4 frames
    Format settings, GOP        : M=3, N=12
    Codec ID                    : V_MPEG4/ISO/AVC
    Duration                    : 1 h 35 min
    Bit rate mode               : Variable
    Bit rate                    : 29.8 Mb/s
    Maximum bit rate            : 32.0 Mb/s
    Width                       : 1 920 pixels
    Height                      : 1 080 pixels
    Display aspect ratio        : 16:9
    Frame rate mode             : Constant
    Frame rate                  : 23.976 (24000/1001) FPS
    Color space                 : YUV
    Chroma subsampling          : 4:2:0
    Bit depth                   : 8 bits
    Scan type                   : Progressive
    Bits/(Pixel*Frame)          : 0.600
    Stream size                 : 20.0 GiB (86%)
    Title                       : REMUX HD1080p [CinemaniaHDD]
    Default                     : Yes
    Forced                      : Yes
    Original source medium      : Blu-ray

    Audio #1
    ID                          : 2
    ID in the original source m : 4356 (0x1104)
    Format                      : DTS
    Format/Info                 : Digital Theater Systems
    Codec ID                    : A_DTS
    Duration                    : 1 h 35 min
    Bit rate mode               : Constant
    Bit rate                    : 768 kb/s
    Channel(s)                  : 6 channels
    Channel layout              : C L R Ls Rs LFE
    Sampling rate               : 48.0 kHz
    Frame rate                  : 93.750 FPS (512 SPF)
    Bit depth                   : 24 bits
    Compression mode            : Lossy
    Stream size                 : 526 MiB (2%)
    Title                       : Español Latino [CinemaniaHDD]
    Language                    : Spanish
    Default                     : Yes
    Forced                      : Yes
    Original source medium      : Blu-ray

    Audio #2
    ID                          : 3
    ID in the original source m : 4352 (0x1100)
    Format                      : DTS XLL
    Format/Info                 : Digital Theater Systems
    Commercial name             : DTS-HD Master Audio
    Codec ID                    : A_DTS
    Duration                    : 1 h 35 min
    Bit rate mode               : Variable
    Bit rate                    : 3 927 kb/s
    Channel(s)                  : 6 channels
    Channel layout              : C L R Ls Rs LFE
    Sampling rate               : 48.0 kHz
    Frame rate                  : 93.750 FPS (512 SPF)
    Bit depth                   : 24 bits
    Compression mode            : Lossless
    Stream size                 : 2.63 GiB (11%)
    Title                       : Ingles [CinemaniaHDD]
    Language                    : English
    Default                     : No
    Forced                      : No
    Original source medium      : Blu-ray

    Text #1
    ID                          : 4
    ID in the original source m : 4634 (0x121A)
    Format                      : PGS
    Muxing mode                 : zlib
    Codec ID                    : S_HDMV/PGS
    Codec ID/Info               : Picture based subtitle format used on BDs/HD-DVDs
    Duration                    : 17 min 13 s
    Bit rate                    : 716 b/s
    Count of elements           : 8
    Stream size                 : 90.4 KiB (0%)
    Title                       : Forzados-PGS [CinemaniaHDD]
    Language                    : Spanish
    Default                     : No
    Forced                      : No
    Original source medium      : Blu-ray

    Text #2
    ID                          : 5
    ID in the original source m : 4612 (0x1204)
    Format                      : PGS
    Muxing mode                 : zlib
    Codec ID                    : S_HDMV/PGS
    Codec ID/Info               : Picture based subtitle format used on BDs/HD-DVDs
    Duration                    : 1 h 26 min
    Bit rate                    : 33.2 kb/s
    Count of elements           : 2354
    Stream size                 : 20.6 MiB (0%)
    Title                       : Español-PGS [CinemaniaHDD]
    Language                    : Spanish
    Default                     : No
    Forced                      : No
    Original source medium      : Blu-ray

    Text #3
    ID                          : 6
    ID in the original source m : 4608 (0x1200)
    Format                      : PGS
    Muxing mode                 : zlib
    Codec ID                    : S_HDMV/PGS
    Codec ID/Info               : Picture based subtitle format used on BDs/HD-DVDs
    Duration                    : 1 h 26 min
    Bit rate                    : 42.1 kb/s
    Count of elements           : 2778
    Stream size                 : 26.1 MiB (0%)
    Title                       : Ingles-PGS [CinemaniaHDD]
    Language                    : English
    Default                     : No
    Forced                      : No
    Original source medium      : Blu-ray

    Text #4
    ID                          : 7
    Format                      : UTF-8
    Codec ID                    : S_TEXT/UTF8
    Codec ID/Info               : UTF-8 Plain Text
    Duration                    : 17 min 13 s
    Bit rate                    : 0 b/s
    Count of elements           : 4
    Stream size                 : 128 Bytes (0%)
    Title                       : Forzados-SRT [CinemaniaHDD]
    Language                    : Spanish
    Default                     : Yes
    Forced                      : Yes

    Text #5
    ID                          : 8
    Format                      : UTF-8
    Codec ID                    : S_TEXT/UTF8
    Codec ID/Info               : UTF-8 Plain Text
    Duration                    : 1 h 26 min
    Bit rate                    : 52 b/s
    Count of elements           : 1178
    Stream size                 : 33.5 KiB (0%)
    Title                       : Español-SRT [CinemaniaHDD]
    Language                    : Spanish
    Default                     : No
    Forced                      : No

    Menu
    00:00:00.000                : Chapter 01
    00:03:57.111                : Chapter 02
    00:09:13.135                : Chapter 03
    00:14:30.578                : Chapter 04
    00:17:58.410                : Chapter 05
    00:22:30.599                : Chapter 06
    00:27:09.502                : Chapter 07
    00:33:33.511                : Chapter 08
    00:38:46.157                : Chapter 09
    00:43:27.646                : Chapter 10
    00:46:31.747                : Chapter 11
    00:52:04.037                : Chapter 12
    00:55:52.098                : Chapter 13
    01:02:15.982                : Chapter 14
    01:07:01.100                : Chapter 15
    01:10:35.689                : Chapter 16
    01:13:16.308                : Chapter 17
    01:17:52.125                : Chapter 18
    01:23:00.934                : Chapter 19
    01:27:27.909                : Chapter 20

  • Peso: 23.1 GiB

Sinopsis

Descargar R.I.P.D.: Policía del más allá (2013) REMUX 1080p Latino. Aunque Nick es un policía que acaba de morir asesinado, es reclutado para trabajar con Roy, un agente que murió hace cientos de años. Ambos forman parte del “Rest In Peace Department”, que se encarga de perseguir a los demonios que habitan en el mundo de los vivos y de mandarlos al infierno. A Nick le cuesta hacerse a la idea de su condición de muerto, y no acepta estar alejado de su esposa, a la que envía reiteradas señales para que perciba su presencia. Al menos, gracias a su empleo post mortem, el joven agente podrá trabajar en el caso de su propio asesinato.

Disponible Solo Para VIP!!!

Ficha técnica

Video trailer de la película

Enlaces de descarga

Rip de Bluray

Descargar R.I.P.D.: Policía del más allá (2013) REMUX 1080p Latino


Aportes de DPeliculasHDmega la pass es:dpeliculashdmega.org Aportes de CinemaniaHD la pass es:cinemaniahdd.com
Guardado en : Acción , Comedia , Crimen , Fantasía , Remux

Películas relacionadas

descargar R.I.P.D.: Policía del más allá (2013) REMUX 1080p Latino Full 1080p 1080p gratis, R.I.P.D.: Policía del más allá (2013) REMUX 1080p Latino Full 1080p mega 1 link, R.I.P.D.: Policía del más allá (2013) REMUX 1080p Latino Full 1080p pelicula completa, descargar R.I.P.D.: Policía del más allá (2013) REMUX 1080p Latino Full 1080p gratis en mega.

R.I.P.D.: Policía del más allá (2013) REMUX 1080p Latino pelicula full hd, R.I.P.D.: Policía del más allá (2013) REMUX 1080p Latino mega latino, R.I.P.D.: Policía del más allá (2013) REMUX 1080p Latino 4k latino, R.I.P.D.: Policía del más allá (2013) REMUX 1080p Latino pelicula completa, R.I.P.D.: Policía del más allá (2013) REMUX 1080p Latino descargar gratis, descargar R.I.P.D.: Policía del más allá (2013) REMUX 1080p Latino pelicula latino, R.I.P.D.: Policía del más allá (2013) REMUX 1080p Latino 1 link mega, R.I.P.D.: Policía del más allá (2013) REMUX 1080p Latino 1 link google drive, R.I.P.D.: Policía del más allá (2013) REMUX 1080p Latino hd 1080p latino.
Comentarios 0