×

¿Problemas para descargar con Mozilla, EDGE? Deshabilita la opción "Abrir vinculos en una pestaña nueva" tal como lo muestra ésta imagen.

R.I.P.D. (2013) REMUX 4K HDR Latino – CMHDD

62 vistas

Información de R.I.P.D. (2013) REMUX 4K HDR Latino – CMHDD

Datos de la película

  • Calidad: 4K HDR
  • Audio: Español Latino DTS 5.1 BLURAY - Ingles DTS-HD Master 7.1 BLURAY
  • Subtitulos: Español Latino PGS
  • Resolución: 3840x2160p
  • Formato: MKV
  • Codec: H.264
  • Encoder: Dracarys
  • Mediainfo: Clic para Mostrar Datos Ver
  • Format                      : Matroska
    Format version              : Version 4
    File size                   : 55.8 GiB
    Duration                    : 1 h 35 min
    Overall bit rate mode       : Variable
    Overall bit rate            : 83.3 Mb/s
    Movie name                  : R.I.P.D. (2013) REMUX 4K HDR Latino - CMHDD
    Encoded date                : UTC 2024-02-14 21:24:28
    Writing application         : mkvmerge v47.0.0 ('Black Flag') 64-bit
    Writing library             : libebml v1.3.10 + libmatroska v1.5.2
    Cover                       : Yes
    Attachments                 : cover.jpg

    Video
    ID                          : 1
    ID in the original source m : 4113 (0x1011)
    Format                      : HEVC
    Format/Info                 : High Efficiency Video Coding
    Format profile              : Main 10@L5.1@High
    HDR format                  : SMPTE ST 2086, HDR10 compatible
    Codec ID                    : V_MPEGH/ISO/HEVC
    Duration                    : 1 h 35 min
    Bit rate                    : 75.1 Mb/s
    Width                       : 3 840 pixels
    Height                      : 2 160 pixels
    Display aspect ratio        : 16:9
    Frame rate mode             : Constant
    Frame rate                  : 23.976 (24000/1001) FPS
    Color space                 : YUV
    Chroma subsampling          : 4:2:0 (Type 2)
    Bit depth                   : 10 bits
    Bits/(Pixel*Frame)          : 0.378
    Stream size                 : 50.3 GiB (90%)
    Writing library             : ATEME Titan File 3.9.6 (4.9.6.2)        
    Default                     : Yes
    Forced                      : No
    Color range                 : Limited
    Color primaries             : BT.2020
    Transfer characteristics    : PQ
    Matrix coefficients         : BT.2020 non-constant
    Mastering display color pri : Display P3
    Mastering display luminance : min: 0.0050 cd/m2, max: 1000 cd/m2
    Maximum Content Light Level : 1000 cd/m2
    Maximum Frame-Average Light : 210 cd/m2
    Original source medium      : Blu-ray

    Audio #1
    ID                          : 2
    ID in the original source m : 4352 (0x1100)
    Format                      : DTS XLL X
    Format/Info                 : Digital Theater Systems
    Commercial name             : DTS-HD Master Audio
    Codec ID                    : A_DTS
    Duration                    : 1 h 35 min
    Bit rate mode               : Variable
    Bit rate                    : 7 425 kb/s
    Channel(s)                  : 8 channels
    Channel(s)_Original         : Object Based
    ChannelLayout_Original      : Object Based
    Sampling rate               : 48.0 kHz
    Frame rate                  : 93.750 FPS (512 SPF)
    Bit depth                   : 24 bits
    Stream size                 : 4.97 GiB (9%)
    Language                    : English
    Default                     : No
    Forced                      : No
    Original source medium      : Blu-ray

    Audio #2
    ID                          : 3
    ID in the original source m : 4355 (0x1103)
    Format                      : DTS
    Format/Info                 : Digital Theater Systems
    Codec ID                    : A_DTS
    Duration                    : 1 h 35 min
    Bit rate mode               : Constant
    Bit rate                    : 768 kb/s
    Channel(s)                  : 6 channels
    Channel layout              : C L R Ls Rs LFE
    Sampling rate               : 48.0 kHz
    Frame rate                  : 93.750 FPS (512 SPF)
    Bit depth                   : 24 bits
    Compression mode            : Lossy
    Stream size                 : 527 MiB (1%)
    Language                    : Spanish
    Default                     : Yes
    Forced                      : No
    Original source medium      : Blu-ray

    Text #1
    ID                          : 4
    ID in the original source m : 4771 (0x12A3)
    Format                      : PGS
    Muxing mode                 : zlib
    Codec ID                    : S_HDMV/PGS
    Codec ID/Info               : Picture based subtitle format used on BDs/HD-DVDs
    Duration                    : 1 h 26 min
    Bit rate                    : 33.1 kb/s
    Frame rate                  : 0.452 FPS
    Count of elements           : 2354
    Stream size                 : 20.5 MiB (0%)
    Language                    : Spanish
    Default                     : No
    Forced                      : No
    Original source medium      : Blu-ray

    Text #2
    ID                          : 5
    ID in the original source m : 4785 (0x12B1)
    Format                      : PGS
    Muxing mode                 : zlib
    Codec ID                    : S_HDMV/PGS
    Codec ID/Info               : Picture based subtitle format used on BDs/HD-DVDs
    Duration                    : 17 min 13 s
    Bit rate                    : 696 b/s
    Frame rate                  : 0.008 FPS
    Count of elements           : 8
    Stream size                 : 87.9 KiB (0%)
    Language                    : Spanish
    Default                     : No
    Forced                      : No
    Original source medium      : Blu-ray

    Menu
    00:00:00.000                : en:Capítulo 01
    00:03:57.779                : en:Capítulo 02
    00:09:13.803                : en:Capítulo 03
    00:14:31.245                : en:Capítulo 04
    00:17:59.078                : en:Capítulo 05
    00:22:31.266                : en:Capítulo 06
    00:27:10.170                : en:Capítulo 07
    00:33:34.178                : en:Capítulo 08
    00:38:46.824                : en:Capítulo 09
    00:43:28.314                : en:Capítulo 10
    00:46:32.414                : en:Capítulo 11
    00:52:04.704                : en:Capítulo 12
    00:55:52.766                : en:Capítulo 13
    01:02:16.649                : en:Capítulo 14
    01:07:01.767                : en:Capítulo 15
    01:10:36.357                : en:Capítulo 16
    01:13:16.975                : en:Capítulo 17
    01:17:52.793                : en:Capítulo 18
    01:23:01.601                : en:Capítulo 19
    01:27:28.576                : en:Capítulo 20

     

  • Peso: 55.8 GiB

Sinopsis

Policías de otro mundo persiguen a espíritus monstruosos quienes intentan escapar del juicio final escondiéndose entre los vivos. Cuando descubren un plan que podría acabar con toda la vida, ellos deben trabajar para restaurar el equilibrio cósmico.

Ficha técnica

Video trailer de la película

Enlaces de descarga

Rip de Bluray

Descargar R.I.P.D. (2013) REMUX 4K HDR Latino – CMHDD




Aportes de DPeliculasHDmega la pass es:dpeliculashdmega.org Aportes de CinemaniaHD la pass es:cinemaniahdd.com Aportes recientes:cinemaniahdd.net
Guardado en : Acción , Comedia , Fantasía

Películas relacionadas

  • Puppy Love (2023) AMZN 4K-HDR WEB-DL 2160p Latino

    Puppy Love (2023) AMZN 4K-HDR WEB-DL 2160p Latino

    2023
    Puppy Love (2023) AMZN 4K-HDR WEB-DL 2160p Latino

    1h 46m 2023

    Después de una desastrosa primera cita, Nicole, una joven desenfrenada, y Max, socialmente ansioso,...

    Director: Trevor Cunningham

    Género: 4K HDR

    Actores: Sarah Almonte Peguero

  • Puppy Love (2023) AMZN WEB-DL 1080p Latino

    Puppy Love (2023) AMZN WEB-DL 1080p Latino

    2023
    Puppy Love (2023) AMZN WEB-DL 1080p Latino

    1h 46m 2023

    Después de una desastrosa primera cita, Nicole, una joven desenfrenada, y Max, socialmente ansioso,...

    Director: Trevor Cunningham

    Género: Comedia

    Actores: Sarah Almonte Peguero

  • Good Burger 2 (2023) HD 1080p Latino

    Good Burger 2 (2023) HD 1080p Latino

    2023
    Good Burger 2 (2023) HD 1080p Latino

    1h 31m 2023

    Descargar Good Burger 2 (2023) HD 1080p Latino. Después de que su último invento falla, Ed le da la...

    Director: Ross Novie

    Género: Comedia

    Actores: Zoe Saldana

  • Good Burger 2 (2023) PLACEBO Full HD 1080p Latino

    Good Burger 2 (2023) PLACEBO Full HD 1080p Latino

    2023
    Good Burger 2 (2023) PLACEBO Full HD 1080p Latino

    1h 31m 2023

    Descargar Good Burger 2 (2023) PLACEBO Full HD 1080p Latino. Después de que su último invento falla,...

    Director: Ross Novie

    Género: Comedia

    Actores: Zoe Saldana

  • Good Burger 2 (2023) REMUX 1080p Latino

    Good Burger 2 (2023) REMUX 1080p Latino

    2023
    Good Burger 2 (2023) REMUX 1080p Latino

    1h 31m 2023

    Descargar Good Burger 2 (2023) REMUX 1080p Latino. Después de que su último invento falla, Ed le da...

    Director: Ross Novie

    Género: Comedia

    Actores: Zoe Saldana

descargar R.I.P.D. (2013) REMUX 4K HDR Latino – CMHDD 4K HDR 1080p gratis, R.I.P.D. (2013) REMUX 4K HDR Latino – CMHDD 4K HDR mega 1 link, R.I.P.D. (2013) REMUX 4K HDR Latino – CMHDD 4K HDR pelicula completa, descargar R.I.P.D. (2013) REMUX 4K HDR Latino – CMHDD 4K HDR gratis en mega.

R.I.P.D. (2013) REMUX 4K HDR Latino – CMHDD pelicula full hd, R.I.P.D. (2013) REMUX 4K HDR Latino – CMHDD mega latino, R.I.P.D. (2013) REMUX 4K HDR Latino – CMHDD 4k latino, R.I.P.D. (2013) REMUX 4K HDR Latino – CMHDD pelicula completa, R.I.P.D. (2013) REMUX 4K HDR Latino – CMHDD descargar gratis, descargar R.I.P.D. (2013) REMUX 4K HDR Latino – CMHDD pelicula latino, R.I.P.D. (2013) REMUX 4K HDR Latino – CMHDD 1 link mega, R.I.P.D. (2013) REMUX 4K HDR Latino – CMHDD 1 link google drive, R.I.P.D. (2013) REMUX 4K HDR Latino – CMHDD hd 1080p latino.
Comentarios 0