×

¿Problemas para descargar con Mozilla, EDGE? Deshabilita la opción "Abrir vinculos en una pestaña nueva" tal como lo muestra ésta imagen.

R.I.P.D. 2: La rebelión de los condenados (2022) REMUX 1080p Latino

25 vistas

Información de R.I.P.D. 2: La rebelión de los condenados (2022) REMUX 1080p Latino

Datos de la película

  • Calidad: Full 1080p
  • Audio: Se especifica abajo de la Sinopsis
  • Subtitulos: Español Latino PGS - Ingles PGS
  • Resolución: 1920x1080p
  • Formato: MKV
  • Codec: H.264
  • Encoder: Melkor
  • Mediainfo: Clic para Mostrar Datos Ver
  • R.I.P.D. 2 La Rebelion De Los Condenados (2022) REMUX 1080p Latino.mkv
    Format                      : Matroska
    Format version              : Version 4
    File size                   : 29.4 GiB
    Duration                    : 1 h 42 min
    Overall bit rate mode       : Variable
    Overall bit rate            : 41.0 Mb/s
    Movie name                  : R.I.P.D. 2. Rise of the Damned (2022) CinemaniaHDD.Net
    Encoded date                : UTC 2022-11-15 20:11:40
    Writing application         : mkvmerge v56.1.0 ('My Friend') 64-bit
    Writing library             : libebml v1.4.2 + libmatroska v1.6.4
    Attachments                 : CINEMANIAHD.png

    Video
    ID                          : 1
    Format                      : AVC
    Format/Info                 : Advanced Video Codec
    Format profile              : High@L4.1
    Format settings             : CABAC / 4 Ref Frames
    Format settings, CABAC      : Yes
    Format settings, Reference  : 4 frames
    Codec ID                    : V_MPEG4/ISO/AVC
    Duration                    : 1 h 42 min
    Bit rate mode               : Variable
    Bit rate                    : 36.3 Mb/s
    Maximum bit rate            : 39.0 Mb/s
    Width                       : 1 920 pixels
    Height                      : 1 080 pixels
    Display aspect ratio        : 16:9
    Frame rate mode             : Constant
    Frame rate                  : 23.976 (24000/1001) FPS
    Color space                 : YUV
    Chroma subsampling          : 4:2:0
    Bit depth                   : 8 bits
    Scan type                   : Progressive
    Bits/(Pixel*Frame)          : 0.730
    Stream size                 : 26.0 GiB (89%)
    Title                       : REMUX HD1080p [CinemaniaHDD]
    Default                     : Yes
    Forced                      : Yes

    Audio #1
    ID                          : 2
    Format                      : AC-3
    Format/Info                 : Audio Coding 3
    Commercial name             : Dolby Digital
    Codec ID                    : A_AC3
    Duration                    : 1 h 42 min
    Bit rate mode               : Constant
    Bit rate                    : 640 kb/s
    Channel(s)                  : 6 channels
    Channel layout              : L R C LFE Ls Rs
    Sampling rate               : 48.0 kHz
    Frame rate                  : 31.250 FPS (1536 SPF)
    Compression mode            : Lossy
    Stream size                 : 470 MiB (2%)
    Title                       : Español Latino AC3 [CinemaniaHDD]
    Language                    : Spanish
    Service kind                : Complete Main
    Default                     : Yes
    Forced                      : Yes

    Audio #2
    ID                          : 3
    Format                      : E-AC-3
    Format/Info                 : Enhanced AC-3
    Commercial name             : Dolby Digital Plus
    Codec ID                    : A_EAC3
    Duration                    : 1 h 42 min
    Bit rate mode               : Constant
    Bit rate                    : 640 kb/s
    Channel(s)                  : 6 channels
    Channel layout              : L R C LFE Ls Rs
    Sampling rate               : 48.0 kHz
    Frame rate                  : 31.250 FPS (1536 SPF)
    Compression mode            : Lossy
    Delay relative to video     : 685 ms
    Stream size                 : 470 MiB (2%)
    Title                       : Español Latino EAC3 [CinemaniaHDD]
    Language                    : Spanish
    Service kind                : Complete Main
    Default                     : No
    Forced                      : No

    Audio #3
    ID                          : 4
    Format                      : DTS XLL
    Format/Info                 : Digital Theater Systems
    Commercial name             : DTS-HD Master Audio
    Codec ID                    : A_DTS
    Duration                    : 1 h 42 min
    Bit rate mode               : Variable
    Bit rate                    : 3 402 kb/s
    Channel(s)                  : 6 channels
    Channel layout              : C L R Ls Rs LFE
    Sampling rate               : 48.0 kHz
    Frame rate                  : 93.750 FPS (512 SPF)
    Bit depth                   : 24 bits
    Compression mode            : Lossless
    Stream size                 : 2.44 GiB (8%)
    Title                       : Ingles [CinemaniaHDD]
    Language                    : English
    Default                     : No
    Forced                      : No

    Text #1
    ID                          : 5
    Format                      : PGS
    Muxing mode                 : zlib
    Codec ID                    : S_HDMV/PGS
    Codec ID/Info               : Picture based subtitle format used on BDs/HD-DVDs
    Duration                    : 1 h 41 min
    Bit rate                    : 35.8 kb/s
    Count of elements           : 2722
    Stream size                 : 26.0 MiB (0%)
    Title                       : Español-PGS [CinemaniaHDD]
    Language                    : Spanish
    Default                     : No
    Forced                      : No

    Text #2
    ID                          : 6
    Format                      : PGS
    Muxing mode                 : zlib
    Codec ID                    : S_HDMV/PGS
    Codec ID/Info               : Picture based subtitle format used on BDs/HD-DVDs
    Duration                    : 1 h 36 min
    Bit rate                    : 45.2 kb/s
    Count of elements           : 3054
    Stream size                 : 31.2 MiB (0%)
    Title                       : Ingles-PGS [CinemaniaHDD]
    Language                    : English
    Default                     : No
    Forced                      : No

    Text #3
    ID                          : 7
    Format                      : UTF-8
    Codec ID                    : S_TEXT/UTF8
    Codec ID/Info               : UTF-8 Plain Text
    Duration                    : 1 h 15 min
    Bit rate                    : 0 b/s
    Count of elements           : 8
    Stream size                 : 255 Bytes (0%)
    Title                       : Forzados-SRT [CinemaniaHDD]
    Language                    : Spanish
    Default                     : Yes
    Forced                      : Yes

    Text #4
    ID                          : 8
    Format                      : UTF-8
    Codec ID                    : S_TEXT/UTF8
    Codec ID/Info               : UTF-8 Plain Text
    Duration                    : 1 h 36 min
    Bit rate                    : 59 b/s
    Count of elements           : 1353
    Stream size                 : 41.8 KiB (0%)
    Title                       : Español-SRT [CinemaniaHDD]
    Language                    : Spanish
    Default                     : No
    Forced                      : No

    Menu
    00:00:00.000                : Chapter 01
    00:03:40.887                : Chapter 02
    00:07:19.773                : Chapter 03
    00:13:01.614                : Chapter 04
    00:16:15.850                : Chapter 05
    00:18:36.407                : Chapter 06
    00:24:52.658                : Chapter 07
    00:32:20.438                : Chapter 08
    00:39:08.012                : Chapter 09
    00:47:10.536                : Chapter 10
    00:53:39.800                : Chapter 11
    01:00:49.980                : Chapter 12
    01:07:15.657                : Chapter 13
    01:12:18.501                : Chapter 14
    01:15:46.333                : Chapter 15
    01:20:04.049                : Chapter 16
    01:26:27.724                : Chapter 17
    01:30:38.224                : Chapter 18
    01:33:55.755                : Chapter 19
    01:37:40.271                : Chapter 20

  • Peso: 29.4 GiB

Sinopsis

Descargar R.I.P.D. 2: La rebelión de los condenados (2022) REMUX 1080p Latino. Ambientada en el oeste americano de 1876, ‘R.I.P.D.2: Rise of the Damed’ es una secuela espiritual de ‘R.I.P.D.’ de 2013. El sheriff Roy Pulsipher no está muy emocionado de encontrarse muerto después de un tiroteo con una notoria pandilla de forajidos, pero tiene una segunda oportunidad de regresar a la tierra después de ser reclutado por el R.I.P.D. (Rest In Peace Department.). Pero vengar su propio asesinato puede tener que pasar a un segundo plano para salvar el mundo cuando se abre una puerta al infierno en el antiguo pueblo minero de Red Creek que amenaza no solo a los lugareños… sino a toda la humanidad.

Español Latino EAC3 5.1 & AC3 5.1 Web – Ingles DTS-HD 5.1 BD

Ficha técnica

Video trailer de la película

Enlaces de descarga

Rip de Bluray

Descargar R.I.P.D. 2: La rebelión de los condenados (2022) REMUX 1080p Latino




Aportes de DPeliculasHDmega la pass es:dpeliculashdmega.org Aportes de CinemaniaHD la pass es:cinemaniahdd.com
Guardado en : Acción , Comedia , Crimen , Fantasía , Remux

Películas relacionadas

descargar R.I.P.D. 2: La rebelión de los condenados (2022) REMUX 1080p Latino Full 1080p 1080p gratis, R.I.P.D. 2: La rebelión de los condenados (2022) REMUX 1080p Latino Full 1080p mega 1 link, R.I.P.D. 2: La rebelión de los condenados (2022) REMUX 1080p Latino Full 1080p pelicula completa, descargar R.I.P.D. 2: La rebelión de los condenados (2022) REMUX 1080p Latino Full 1080p gratis en mega.

R.I.P.D. 2: La rebelión de los condenados (2022) REMUX 1080p Latino pelicula full hd, R.I.P.D. 2: La rebelión de los condenados (2022) REMUX 1080p Latino mega latino, R.I.P.D. 2: La rebelión de los condenados (2022) REMUX 1080p Latino 4k latino, R.I.P.D. 2: La rebelión de los condenados (2022) REMUX 1080p Latino pelicula completa, R.I.P.D. 2: La rebelión de los condenados (2022) REMUX 1080p Latino descargar gratis, descargar R.I.P.D. 2: La rebelión de los condenados (2022) REMUX 1080p Latino pelicula latino, R.I.P.D. 2: La rebelión de los condenados (2022) REMUX 1080p Latino 1 link mega, R.I.P.D. 2: La rebelión de los condenados (2022) REMUX 1080p Latino 1 link google drive, R.I.P.D. 2: La rebelión de los condenados (2022) REMUX 1080p Latino hd 1080p latino.
Comentarios 0