×

¿Problemas para descargar con Mozilla, EDGE? Deshabilita la opción "Abrir vinculos en una pestaña nueva" tal como lo muestra ésta imagen.

R.I.P.D. 2: La rebelión de los condenados (2022) HD 1080p Latino

24 vistas

Información de R.I.P.D. 2: La rebelión de los condenados (2022) HD 1080p Latino

Datos de la película

  • Calidad: 1080p
  • Audio: Español Latino AC3 5.1 WEB-DL - Ingles AC3 5.1 BLURAY
  • Subtitulos: Español Latino SRT- FORZADOS SRT
  • Resolución: 1920x960p
  • Formato: MKV
  • Codec: H.264
  • Encoder: Melkor
  • Mediainfo: Clic para Mostrar Datos Ver
  • R.I.P.D. 2 La Rebelion De Los Condenados (2022) HD 1080p Latino.mkv
    Format                      : Matroska
    Format version              : Version 4
    File size                   : 3.26 GiB
    Duration                    : 1 h 42 min
    Overall bit rate            : 4 550 kb/s
    Movie name                  : R.I.P.D. 2. Rise of the Damned (2022) CinemaniaHDD.Net
    Encoded date                : UTC 2022-11-15 21:56:56
    Writing application         : mkvmerge v56.1.0 ('My Friend') 64-bit
    Writing library             : libebml v1.4.2 + libmatroska v1.6.4
    Attachments                 : CINEMANIAHD.png

    Video
    ID                          : 1
    Format                      : AVC
    Format/Info                 : Advanced Video Codec
    Format profile              : High@L4.1
    Format settings             : CABAC / 4 Ref Frames
    Format settings, CABAC      : Yes
    Format settings, Reference  : 4 frames
    Codec ID                    : V_MPEG4/ISO/AVC
    Duration                    : 1 h 42 min
    Bit rate                    : 3 500 kb/s
    Width                       : 1 920 pixels
    Height                      : 960 pixels
    Display aspect ratio        : 2.000
    Frame rate mode             : Constant
    Frame rate                  : 23.976 (24000/1001) FPS
    Color space                 : YUV
    Chroma subsampling          : 4:2:0
    Bit depth                   : 8 bits
    Scan type                   : Progressive
    Bits/(Pixel*Frame)          : 0.079
    Stream size                 : 2.48 GiB (76%)
    Title                       : HD1080p [CinemaniaHDD]
    Writing library             : x264 core 163 r3059 b684ebe0
    Encoding settings           : cabac=1 / ref=4 / deblock=1:-1:-1 / analyse=0x3:0x133 / me=umh / subme=9 / psy=1 / psy_rd=1.00:0.15 / mixed_ref=1 / me_range=16 / chroma_me=1 / trellis=2 / 8x8dct=1 / cqm=0 / deadzone=21,11 / fast_pskip=1 / chroma_qp_offset=-3 / threads=24 / lookahead_threads=2 / sliced_threads=0 / nr=0 / decimate=1 / interlaced=0 / bluray_compat=0 / constrained_intra=0 / bframes=3 / b_pyramid=2 / b_adapt=2 / b_bias=0 / direct=3 / weightb=1 / open_gop=0 / weightp=2 / keyint=240 / keyint_min=24 / scenecut=40 / intra_refresh=0 / rc_lookahead=60 / rc=abr / mbtree=1 / bitrate=3500 / ratetol=1.0 / qcomp=0.60 / qpmin=0 / qpmax=69 / qpstep=4 / vbv_maxrate=62500 / vbv_bufsize=78125 / nal_hrd=none / filler=0 / ip_ratio=1.40 / aq=1:1.00
    Default                     : Yes
    Forced                      : Yes
    Color range                 : Limited
    Color primaries             : BT.709
    Transfer characteristics    : BT.709
    Matrix coefficients         : BT.709

    Audio #1
    ID                          : 2
    Format                      : AC-3
    Format/Info                 : Audio Coding 3
    Commercial name             : Dolby Digital
    Codec ID                    : A_AC3
    Duration                    : 1 h 42 min
    Bit rate mode               : Constant
    Bit rate                    : 640 kb/s
    Channel(s)                  : 6 channels
    Channel layout              : L R C LFE Ls Rs
    Sampling rate               : 48.0 kHz
    Frame rate                  : 31.250 FPS (1536 SPF)
    Compression mode            : Lossy
    Delay relative to video     : -5 ms
    Stream size                 : 470 MiB (14%)
    Title                       : Español Latino [CinemaniaHDD]
    Language                    : Spanish
    Service kind                : Complete Main
    Default                     : Yes
    Forced                      : Yes

    Audio #2
    ID                          : 3
    Format                      : AC-3
    Format/Info                 : Audio Coding 3
    Commercial name             : Dolby Digital
    Codec ID                    : A_AC3
    Duration                    : 1 h 42 min
    Bit rate mode               : Constant
    Bit rate                    : 448 kb/s
    Channel(s)                  : 6 channels
    Channel layout              : L R C LFE Ls Rs
    Sampling rate               : 48.0 kHz
    Frame rate                  : 31.250 FPS (1536 SPF)
    Compression mode            : Lossy
    Delay relative to video     : -5 ms
    Stream size                 : 329 MiB (10%)
    Title                       : Ingles [CinemaniaHDD]
    Language                    : English
    Service kind                : Complete Main
    Default                     : No
    Forced                      : No

    Text #1
    ID                          : 4
    Format                      : UTF-8
    Codec ID                    : S_TEXT/UTF8
    Codec ID/Info               : UTF-8 Plain Text
    Duration                    : 1 h 15 min
    Bit rate                    : 0 b/s
    Count of elements           : 8
    Stream size                 : 255 Bytes (0%)
    Title                       : Forzados-SRT [CinemaniaHDD]
    Language                    : Spanish
    Default                     : Yes
    Forced                      : Yes

    Text #2
    ID                          : 5
    Format                      : UTF-8
    Codec ID                    : S_TEXT/UTF8
    Codec ID/Info               : UTF-8 Plain Text
    Duration                    : 1 h 36 min
    Bit rate                    : 59 b/s
    Count of elements           : 1353
    Stream size                 : 41.8 KiB (0%)
    Title                       : Español-SRT [CinemaniaHDD]
    Language                    : Spanish
    Default                     : No
    Forced                      : No

    Text #3
    ID                          : 6
    Format                      : UTF-8
    Codec ID                    : S_TEXT/UTF8
    Codec ID/Info               : UTF-8 Plain Text
    Duration                    : 1 h 36 min
    Bit rate                    : 61 b/s
    Count of elements           : 1427
    Stream size                 : 43.5 KiB (0%)
    Title                       : Ingles-SRT [CinemaniaHDD]
    Language                    : English
    Default                     : No
    Forced                      : No

    Menu
    00:00:00.000                : Chapter 01
    00:03:40.887                : Chapter 02
    00:07:19.773                : Chapter 03
    00:13:01.614                : Chapter 04
    00:16:15.850                : Chapter 05
    00:18:36.407                : Chapter 06
    00:24:52.658                : Chapter 07
    00:32:20.438                : Chapter 08
    00:39:08.012                : Chapter 09
    00:47:10.536                : Chapter 10
    00:53:39.800                : Chapter 11
    01:00:49.980                : Chapter 12
    01:07:15.657                : Chapter 13
    01:12:18.501                : Chapter 14
    01:15:46.333                : Chapter 15
    01:20:04.049                : Chapter 16
    01:26:27.724                : Chapter 17
    01:30:38.224                : Chapter 18
    01:33:55.755                : Chapter 19
    01:37:40.271                : Chapter 20

  • Peso: 3.26 GiB

Sinopsis

Descargar R.I.P.D. 2: La rebelión de los condenados (2022) HD 1080p Latino. Ambientada en el oeste americano de 1876, ‘R.I.P.D.2: Rise of the Damed’ es una secuela espiritual de ‘R.I.P.D.’ de 2013. El sheriff Roy Pulsipher no está muy emocionado de encontrarse muerto después de un tiroteo con una notoria pandilla de forajidos, pero tiene una segunda oportunidad de regresar a la tierra después de ser reclutado por el R.I.P.D. (Rest In Peace Department.). Pero vengar su propio asesinato puede tener que pasar a un segundo plano para salvar el mundo cuando se abre una puerta al infierno en el antiguo pueblo minero de Red Creek que amenaza no solo a los lugareños… sino a toda la humanidad.

Ficha técnica

Video trailer de la película

Enlaces de descarga

Rip de Bluray

Descargar R.I.P.D. 2: La rebelión de los condenados (2022) HD 1080p Latino




Aportes de DPeliculasHDmega la pass es:dpeliculashdmega.org Aportes de CinemaniaHD la pass es:cinemaniahdd.com
Guardado en : Acción , Comedia , Crimen , Fantasía , HD 1080p

Películas relacionadas

descargar R.I.P.D. 2: La rebelión de los condenados (2022) HD 1080p Latino 1080p 1080p gratis, R.I.P.D. 2: La rebelión de los condenados (2022) HD 1080p Latino 1080p mega 1 link, R.I.P.D. 2: La rebelión de los condenados (2022) HD 1080p Latino 1080p pelicula completa, descargar R.I.P.D. 2: La rebelión de los condenados (2022) HD 1080p Latino 1080p gratis en mega.

R.I.P.D. 2: La rebelión de los condenados (2022) HD 1080p Latino pelicula full hd, R.I.P.D. 2: La rebelión de los condenados (2022) HD 1080p Latino mega latino, R.I.P.D. 2: La rebelión de los condenados (2022) HD 1080p Latino 4k latino, R.I.P.D. 2: La rebelión de los condenados (2022) HD 1080p Latino pelicula completa, R.I.P.D. 2: La rebelión de los condenados (2022) HD 1080p Latino descargar gratis, descargar R.I.P.D. 2: La rebelión de los condenados (2022) HD 1080p Latino pelicula latino, R.I.P.D. 2: La rebelión de los condenados (2022) HD 1080p Latino 1 link mega, R.I.P.D. 2: La rebelión de los condenados (2022) HD 1080p Latino 1 link google drive, R.I.P.D. 2: La rebelión de los condenados (2022) HD 1080p Latino hd 1080p latino.
Comentarios 0