×

¿Problemas para descargar con Mozilla, EDGE? Deshabilita la opción "Abrir vinculos en una pestaña nueva" tal como lo muestra ésta imagen.

Quiet Comes the Dawn (2019) WEB-DL 1080p Latino

1.602 vistas

Información de Quiet Comes the Dawn (2019) WEB-DL 1080p Latino

rassvet 935751119 large

Datos de la película

  • Calidad: WEBDL
  • Audio: Se especifica abajo de la Sinopsis
  • Subtitulos: Español Latino SRT- FORZADOS SRT
  • Resolución: 1908x792
  • Formato: MKV
  • Codec: H.264
  • Encoder: cinemaniahdd
  • Mediainfo: Clic para Mostrar Datos Ver
  • Quiet Comes the Dawn (2019) WEB-DL 1080p Latino.mkv
    Format                      : Matroska
    Format version              : Version 4
    File size                   : 3.71 GiB
    Duration                    : 1 h 37 min
    Overall bit rate            : 5 431 kb/s
    Movie name                  : Quiet Comes the Dawn (2019) - CinemaniaHDD.Net
    Encoded date                : UTC 2019-11-05 01:06:06
    Writing application         : mkvmerge v38.0.0 ('The Silent Type') 64-bit
    Writing library             : libebml v1.3.9 + libmatroska v1.5.2

    Video
    ID                          : 1
    Format                      : AVC
    Format/Info                 : Advanced Video Codec
    Format profile              : High@L4
    Format settings             : CABAC / 5 Ref Frames
    Format settings, CABAC      : Yes
    Format settings, ReFrames   : 5 frames
    Codec ID                    : V_MPEG4/ISO/AVC
    Duration                    : 1 h 37 min
    Bit rate                    : 4 597 kb/s
    Width                       : 1 908 pixels
    Height                      : 792 pixels
    Display aspect ratio        : 2.40:1
    Frame rate mode             : Constant
    Frame rate                  : 23.976 (24000/1001) FPS
    Color space                 : YUV
    Chroma subsampling          : 4:2:0
    Bit depth                   : 8 bits
    Scan type                   : Progressive
    Bits/(Pixel*Frame)          : 0.127
    Stream size                 : 3.14 GiB (85%)
    Title                       : CinemaniaHDD
    Language                    : Russian
    Default                     : Yes
    Forced                      : No
    Color range                 : Limited
    Color primaries             : BT.709
    Transfer characteristics    : BT.709
    Matrix coefficients         : BT.709

    Audio #1
    ID                          : 2
    Format                      : AC-3
    Format/Info                 : Audio Coding 3
    Commercial name             : Dolby Digital
    Codec ID                    : A_AC3
    Duration                    : 1 h 37 min
    Bit rate mode               : Constant
    Bit rate                    : 448 kb/s
    Channel(s)                  : 6 channels
    Channel layout              : L R C LFE Ls Rs
    Sampling rate               : 48.0 kHz
    Frame rate                  : 31.250 FPS (1536 SPF)
    Bit depth                   : 16 bits
    Compression mode            : Lossy
    Stream size                 : 313 MiB (8%)
    Title                       : Español latino [CinemaniaHDD]
    Language                    : Spanish
    Service kind                : Complete Main
    Default                     : Yes
    Forced                      : No

    Audio #2
    ID                          : 3
    Format                      : AC-3
    Format/Info                 : Audio Coding 3
    Commercial name             : Dolby Digital
    Codec ID                    : A_AC3
    Duration                    : 1 h 37 min
    Bit rate mode               : Constant
    Bit rate                    : 384 kb/s
    Channel(s)                  : 6 channels
    Channel layout              : L R C LFE Ls Rs
    Sampling rate               : 48.0 kHz
    Frame rate                  : 31.250 FPS (1536 SPF)
    Bit depth                   : 16 bits
    Compression mode            : Lossy
    Stream size                 : 268 MiB (7%)
    Title                       : Ruso [CinemaniaHDD]
    Language                    : Russian
    Service kind                : Complete Main
    Default                     : No
    Forced                      : No

    Text #1
    ID                          : 4
    Format                      : UTF-8
    Codec ID                    : S_TEXT/UTF8
    Codec ID/Info               : UTF-8 Plain Text
    Duration                    : 1 h 1 min
    Bit rate                    : 0 b/s
    Count of elements           : 7
    Stream size                 : 232 Bytes (0%)
    Title                       : Forzados [CinemaniaHDD]
    Language                    : Spanish
    Default                     : Yes
    Forced                      : Yes

    Text #2
    ID                          : 5
    Format                      : UTF-8
    Codec ID                    : S_TEXT/UTF8
    Codec ID/Info               : UTF-8 Plain Text
    Duration                    : 1 h 31 min
    Bit rate                    : 34 b/s
    Count of elements           : 725
    Stream size                 : 22.9 KiB (0%)
    Title                       : Español latino [CinemaniaHDD]
    Language                    : Spanish
    Default                     : No
    Forced                      : No

    Menu
    00:00:00.000                : en:1
    00:03:53.000                : en:2
    00:13:33.000                : en:3
    00:23:19.000                : en:4
    00:32:03.000                : en:5
    00:42:42.000                : en:6
    00:52:23.000                : en:7
    01:02:26.000                : en:8
    01:12:23.000                : en:9
    01:22:04.000                : en:10
    01:33:36.000                : en:11

     

  • Peso: 3.71 GiB

Sinopsis

Un instituto crea un sistema el cual puede generar sueños lucidos colectivos para ayudar a sus pacientes a mejorar, pero que pasaría si esos sueños reflejan tus peores pesadillas.

Español Latino AC3 5.1 – Ruso AC3 5.1 WEB-DL

Ficha técnica

Video trailer de la película

Enlaces de descarga

Rip de Bluray

Descargar Quiet Comes the Dawn (2019) WEB-DL 1080p Latino




Aportes de DPeliculasHDmega la pass es:dpeliculashdmega.org Aportes de CinemaniaHD la pass es:cinemaniahdd.com
Guardado en : Suspenso , Terror

Películas relacionadas

  • Borrego: Sal Del Camino (2022) HD 1080p Latino

    Borrego: Sal Del Camino (2022) HD 1080p Latino

    2022
    Borrego: Sal Del Camino (2022) HD 1080p Latino

    1h 42m 2022

    Descargar Borrego: Sal Del Camino (2022) HD 1080p Latino. Una joven botánica se traslada a un pequeño...

    Director: Jesse Harris

    Género: Crimen

    Actores: Olivia Trujillo

  • Borrego: Sal Del Camino (2022) REMUX 1080p Latino

    Borrego: Sal Del Camino (2022) REMUX 1080p Latino

    2022
    Borrego: Sal Del Camino (2022) REMUX 1080p Latino

    1h 42m 2022

    Descargar Borrego: Sal Del Camino (2022) REMUX 1080p Latino. Una joven botánica se traslada a un pequeño...

    Director: Jesse Harris

    Género: Crimen

    Actores: Olivia Trujillo

  • Tren Bala (2022) WEB-DL 4K UHD HDR Latino

    Tren Bala (2022) WEB-DL 4K UHD HDR Latino

    2022
    Tren Bala (2022) WEB-DL 4K UHD HDR Latino

    2h 7m 2022

    Descargar Tren Bala (2022) WEB-DL 4K UHD HDR Latino. El desafortunado asesino "Catarina" está decidido...

    Director: Paul Barry

    Género: 4K HDR

    Actores: Zooey Miyoshi

  • Tren Bala (2022) AMZN WEB-DL 1080p Latino

    Tren Bala (2022) AMZN WEB-DL 1080p Latino

    2022
    Tren Bala (2022) AMZN WEB-DL 1080p Latino

    2h 7m 2022

    Descargar Tren Bala (2022) AMZN WEB-DL 1080p Latino. Cinco asesinos a sueldo se encuentran a bordo de...

    Director: Paul Barry

    Género: Acción

    Actores: Zooey Miyoshi

descargar Quiet Comes the Dawn (2019) WEB-DL 1080p Latino WEBDL 1080p gratis, Quiet Comes the Dawn (2019) WEB-DL 1080p Latino WEBDL mega 1 link, Quiet Comes the Dawn (2019) WEB-DL 1080p Latino WEBDL pelicula completa, descargar Quiet Comes the Dawn (2019) WEB-DL 1080p Latino WEBDL gratis en mega.

Quiet Comes the Dawn (2019) WEB-DL 1080p Latino pelicula full hd, Quiet Comes the Dawn (2019) WEB-DL 1080p Latino mega latino, Quiet Comes the Dawn (2019) WEB-DL 1080p Latino 4k latino, Quiet Comes the Dawn (2019) WEB-DL 1080p Latino pelicula completa, Quiet Comes the Dawn (2019) WEB-DL 1080p Latino descargar gratis, descargar Quiet Comes the Dawn (2019) WEB-DL 1080p Latino pelicula latino, Quiet Comes the Dawn (2019) WEB-DL 1080p Latino 1 link mega, Quiet Comes the Dawn (2019) WEB-DL 1080p Latino 1 link google drive, Quiet Comes the Dawn (2019) WEB-DL 1080p Latino hd 1080p latino.
Comentarios 0