×

¿Problemas para descargar con Mozilla, EDGE? Deshabilita la opción "Abrir vinculos en una pestaña nueva" tal como lo muestra ésta imagen.

Quiero Bailar con Alguien: La Historia de Whitney Houston (2022) REMUX 1080p latino

336 vistas

Información de Quiero Bailar con Alguien: La Historia de Whitney Houston (2022) REMUX 1080p latino

Datos de la película

  • Calidad: Full 1080p
  • Audio: Español Latino DTS 5.1 BLURAY - Ingles DTS 5.1 BLURAY
  • Subtitulos: Español Latino PGS - Ingles PGS
  • Resolución: 1920x1080p
  • Formato: MKV
  • Codec: H.264
  • Encoder: Melkor
  • Mediainfo: Clic para Mostrar Datos Ver
  • WH. Quiero bailar con alguien (2022) REMUX 1080p Latino.mkv
    Format                      : Matroska
    Format version              : Version 4
    File size                   : 31.2 GiB
    Duration                    : 2 h 24 min
    Overall bit rate mode       : Variable
    Overall bit rate            : 30.9 Mb/s
    Movie name                  : Whitney Houston. I Wanna Dance with Somebody (2022) CinemaniaHDD.Net
    Encoded date                : UTC 2023-02-24 03:17:18
    Writing application         : mkvmerge v56.1.0 ('My Friend') 64-bit
    Writing library             : libebml v1.4.2 + libmatroska v1.6.4
    Attachments                 : CINEMANIAHD.png
    Site                        : CinemaniaHDD.Net
    Uploader                    : Melkor

    Video
    ID                          : 1
    ID in the original source m : 4113 (0x1011)
    Format                      : AVC
    Format/Info                 : Advanced Video Codec
    Format profile              : High@L4.1
    Format settings             : CABAC / 2 Ref Frames
    Format settings, CABAC      : Yes
    Format settings, Reference  : 2 frames
    Format settings, GOP        : M=1, N=10
    Codec ID                    : V_MPEG4/ISO/AVC
    Duration                    : 2 h 24 min
    Bit rate mode               : Variable
    Bit rate                    : 24.8 Mb/s
    Width                       : 1 920 pixels
    Height                      : 1 080 pixels
    Display aspect ratio        : 16:9
    Frame rate mode             : Constant
    Frame rate                  : 23.976 (24000/1001) FPS
    Color space                 : YUV
    Chroma subsampling          : 4:2:0
    Bit depth                   : 8 bits
    Scan type                   : Progressive
    Bits/(Pixel*Frame)          : 0.499
    Stream size                 : 25.0 GiB (80%)
    Title                       : REMUX HD1080p [CinemaniaHDD]
    Default                     : Yes
    Forced                      : Yes
    Original source medium      : Blu-ray

    Audio #1
    ID                          : 2
    Format                      : DTS
    Format/Info                 : Digital Theater Systems
    Codec ID                    : A_DTS
    Duration                    : 2 h 24 min
    Bit rate mode               : Constant
    Bit rate                    : 1 509 kb/s
    Channel(s)                  : 6 channels
    Channel layout              : C L R Ls Rs LFE
    Sampling rate               : 48.0 kHz
    Frame rate                  : 93.750 FPS (512 SPF)
    Bit depth                   : 24 bits
    Compression mode            : Lossy
    Stream size                 : 1.52 GiB (5%)
    Title                       : Español Latino Core DTS [CinemaniaHDD]
    Language                    : Spanish
    Default                     : Yes
    Forced                      : Yes

    Audio #2
    ID                          : 3
    ID in the original source m : 4357 (0x1105)
    Format                      : DTS XLL
    Format/Info                 : Digital Theater Systems
    Commercial name             : DTS-HD Master Audio
    Codec ID                    : A_DTS
    Duration                    : 2 h 24 min
    Bit rate mode               : Variable
    Bit rate                    : 2 297 kb/s
    Channel(s)                  : 6 channels
    Channel layout              : C L R Ls Rs LFE
    Sampling rate               : 48.0 kHz
    Frame rate                  : 93.750 FPS (512 SPF)
    Bit depth                   : 16 bits
    Compression mode            : Lossless
    Stream size                 : 2.32 GiB (7%)
    Title                       : Español Latino [CinemaniaHDD]
    Language                    : Spanish
    Default                     : No
    Forced                      : No
    Original source medium      : Blu-ray

    Audio #3
    ID                          : 4
    ID in the original source m : 4352 (0x1100)
    Format                      : DTS XLL
    Format/Info                 : Digital Theater Systems
    Commercial name             : DTS-HD Master Audio
    Codec ID                    : A_DTS
    Duration                    : 2 h 24 min
    Bit rate mode               : Variable
    Bit rate                    : 2 266 kb/s
    Channel(s)                  : 6 channels
    Channel layout              : C L R Ls Rs LFE
    Sampling rate               : 48.0 kHz
    Frame rate                  : 93.750 FPS (512 SPF)
    Bit depth                   : 16 bits
    Compression mode            : Lossless
    Stream size                 : 2.29 GiB (7%)
    Title                       : Ingles [CinemaniaHDD]
    Language                    : English
    Default                     : No
    Forced                      : No
    Original source medium      : Blu-ray

    Text #1
    ID                          : 5
    Format                      : PGS
    Muxing mode                 : zlib
    Codec ID                    : S_HDMV/PGS
    Codec ID/Info               : Picture based subtitle format used on BDs/HD-DVDs
    Duration                    : 2 h 22 min
    Bit rate                    : 2 269 b/s
    Count of elements           : 264
    Stream size                 : 2.32 MiB (0%)
    Title                       : Forzados-PGS [CinemaniaHDD]
    Language                    : Spanish
    Default                     : No
    Forced                      : No

    Text #2
    ID                          : 6
    ID in the original source m : 4617 (0x1209)
    Format                      : PGS
    Muxing mode                 : zlib
    Codec ID                    : S_HDMV/PGS
    Codec ID/Info               : Picture based subtitle format used on BDs/HD-DVDs
    Duration                    : 2 h 23 min
    Bit rate                    : 26.5 kb/s
    Count of elements           : 3458
    Stream size                 : 27.2 MiB (0%)
    Title                       : Español-PGS [CinemaniaHDD]
    Language                    : Spanish
    Default                     : No
    Forced                      : No
    Original source medium      : Blu-ray

    Text #3
    ID                          : 7
    ID in the original source m : 4609 (0x1201)
    Format                      : PGS
    Muxing mode                 : zlib
    Codec ID                    : S_HDMV/PGS
    Codec ID/Info               : Picture based subtitle format used on BDs/HD-DVDs
    Duration                    : 2 h 15 min
    Bit rate                    : 38.5 kb/s
    Count of elements           : 4374
    Stream size                 : 37.3 MiB (0%)
    Title                       : Ingles-PGS [CinemaniaHDD]
    Language                    : English
    Default                     : No
    Forced                      : No
    Original source medium      : Blu-ray

    Text #4
    ID                          : 8
    Format                      : UTF-8
    Codec ID                    : S_TEXT/UTF8
    Codec ID/Info               : UTF-8 Plain Text
    Duration                    : 2 h 23 min
    Bit rate                    : 22 b/s
    Count of elements           : 718
    Stream size                 : 23.5 KiB (0%)
    Title                       : Forzados-SRT [CinemaniaHDD]
    Language                    : Spanish
    Default                     : Yes
    Forced                      : Yes

    Text #5
    ID                          : 9
    Format                      : UTF-8
    Codec ID                    : S_TEXT/UTF8
    Codec ID/Info               : UTF-8 Plain Text
    Duration                    : 2 h 23 min
    Bit rate                    : 45 b/s
    Count of elements           : 1694
    Stream size                 : 48.0 KiB (0%)
    Title                       : Español-SRT [CinemaniaHDD]
    Language                    : Spanish
    Default                     : No
    Forced                      : No

    Menu
    00:00:00.000                : Chapter 01
    00:11:26.477                : Chapter 02
    00:21:29.997                : Chapter 03
    00:31:00.066                : Chapter 04
    00:38:24.927                : Chapter 05
    00:54:39.776                : Chapter 06
    01:02:32.415                : Chapter 07
    01:07:30.129                : Chapter 08
    01:13:50.717                : Chapter 09
    01:17:57.339                : Chapter 10
    01:21:23.753                : Chapter 11
    01:26:59.756                : Chapter 12
    01:33:19.927                : Chapter 13
    01:44:02.486                : Chapter 14
    01:53:26.841                : Chapter 15
    02:06:50.603                : Chapter 16

  • Peso: 31.2 GiB

Sinopsis

Descargar Quiero Bailar con Alguien: La Historia de Whitney Houston (2022) REMUX 1080p latino. Biopic sobre la cantante Whitney Houston. Un retrato sin reservas de la compleja y multifacética mujer detrás de la que fue apodada ‘la voz’. Un repaso a su historia desde que era una niña que cantaba en un coro en Nueva Jersey hasta convertirse una de las artistas de la música pop más exitosas, superventas y premiadas de todos los tiempos.

Ficha técnica

Video trailer de la película

Enlaces de descarga

Rip de Bluray

Descargar Quiero Bailar con Alguien: La Historia de Whitney Houston (2022) REMUX 1080p latino


Aportes de DPeliculasHDmega la pass es:dpeliculashdmega.org Aportes de CinemaniaHD la pass es:cinemaniahdd.com Aportes recientes:cinemaniahdd.net
Guardado en : Drama , Historia , Música , Remux

Películas relacionadas

  • The Chosen (2024) Temorada 4 WEB-DL 1080p Latino

    The Chosen (2024) Temorada 4 WEB-DL 1080p Latino

    2019
    The Chosen (2024) Temorada 4 WEB-DL 1080p Latino

    0h 43m 2019

    Por primera vez, la historia más grande jamás contada se presenta en una serie de varias temporadas....

    Director: Dallas Jenkins

    Género: Drama

    Actores: Yasmine Al-Bustami

  • Tiburón (1975) REMUX 1080p Latino-CMHDD

    Tiburón (1975) REMUX 1080p Latino-CMHDD

    1975
    Tiburón (1975) REMUX 1080p Latino-CMHDD

    2h 4m 1975

    Descargar Tiburón (1975) REMUX 1080p Latino-CMHDD. En la costa de un pequeño pueblo del Este de Estados...

    Director: Tom Joyner

    Género: Aventura

    Actores: Ted Grossman

descargar Quiero Bailar con Alguien: La Historia de Whitney Houston (2022) REMUX 1080p latino Full 1080p 1080p gratis, Quiero Bailar con Alguien: La Historia de Whitney Houston (2022) REMUX 1080p latino Full 1080p mega 1 link, Quiero Bailar con Alguien: La Historia de Whitney Houston (2022) REMUX 1080p latino Full 1080p pelicula completa, descargar Quiero Bailar con Alguien: La Historia de Whitney Houston (2022) REMUX 1080p latino Full 1080p gratis en mega.

Quiero Bailar con Alguien: La Historia de Whitney Houston (2022) REMUX 1080p latino pelicula full hd, Quiero Bailar con Alguien: La Historia de Whitney Houston (2022) REMUX 1080p latino mega latino, Quiero Bailar con Alguien: La Historia de Whitney Houston (2022) REMUX 1080p latino 4k latino, Quiero Bailar con Alguien: La Historia de Whitney Houston (2022) REMUX 1080p latino pelicula completa, Quiero Bailar con Alguien: La Historia de Whitney Houston (2022) REMUX 1080p latino descargar gratis, descargar Quiero Bailar con Alguien: La Historia de Whitney Houston (2022) REMUX 1080p latino pelicula latino, Quiero Bailar con Alguien: La Historia de Whitney Houston (2022) REMUX 1080p latino 1 link mega, Quiero Bailar con Alguien: La Historia de Whitney Houston (2022) REMUX 1080p latino 1 link google drive, Quiero Bailar con Alguien: La Historia de Whitney Houston (2022) REMUX 1080p latino hd 1080p latino.
Comentarios 0