×

¿Problemas para descargar con Mozilla, EDGE? Deshabilita la opción "Abrir vinculos en una pestaña nueva" tal como lo muestra ésta imagen.

¿Quien Perdió Un Panda? (2019) REMUX 1080p Latino

293 vistas

Información de ¿Quien Perdió Un Panda? (2019) REMUX 1080p Latino

Datos de la película

  • Calidad: Full 1080p
  • Audio: Español Latino AC3 2.0 CAPTURADO - Ruso DTS 5.1
  • Subtitulos: Español Latino SRT
  • Resolución: 1920x1080p
  • Formato: MKV
  • Codec: H.264
  • Encoder: CinemaniaHD
  • Mediainfo: Clic para Mostrar Datos Ver
  • The Big Trip (2019) REMUX 1080p Latino.mkv
    Format                      : Matroska
    Format version              : Version 4
    File size                   : 17.9 GiB
    Duration                    : 1 h 23 min
    Overall bit rate mode       : Variable
    Overall bit rate            : 30.5 Mb/s
    Encoded date                : UTC 2020-06-10 20:00:25
    Writing application         : mkvmerge v46.0.0 ('No Deeper Escape') 64-bit
    Writing library             : libebml v1.3.10 + libmatroska v1.5.2

    Video
    ID                          : 1
    ID in the original source m : 4113 (0x1011)
    Format                      : AVC
    Format/Info                 : Advanced Video Codec
    Format profile              : High@L4.1
    Format settings             : CABAC / 3 Ref Frames
    Format settings, CABAC      : Yes
    Format settings, Reference  : 3 frames
    Codec ID                    : V_MPEG4/ISO/AVC
    Duration                    : 1 h 23 min
    Bit rate mode               : Variable
    Bit rate                    : 26.1 Mb/s
    Maximum bit rate            : 37.0 Mb/s
    Width                       : 1 920 pixels
    Height                      : 1 080 pixels
    Display aspect ratio        : 16:9
    Frame rate mode             : Constant
    Frame rate                  : 23.976 (24000/1001) FPS
    Color space                 : YUV
    Chroma subsampling          : 4:2:0
    Bit depth                   : 8 bits
    Scan type                   : Progressive
    Bits/(Pixel*Frame)          : 0.525
    Stream size                 : 15.3 GiB (86%)
    Default                     : Yes
    Forced                      : No
    Original source medium      : Blu-ray

    Audio #1
    ID                          : 2
    Format                      : AC-3
    Format/Info                 : Audio Coding 3
    Commercial name             : Dolby Digital
    Codec ID                    : A_AC3
    Duration                    : 1 h 23 min
    Bit rate mode               : Constant
    Bit rate                    : 256 kb/s
    Channel(s)                  : 2 channels
    Channel layout              : L R
    Sampling rate               : 48.0 kHz
    Frame rate                  : 31.250 FPS (1536 SPF)
    Compression mode            : Lossy
    Stream size                 : 154 MiB (1%)
    Language                    : Spanish
    Service kind                : Complete Main
    Default                     : Yes
    Forced                      : No

    Audio #2
    ID                          : 3
    ID in the original source m : 4353 (0x1101)
    Format                      : DTS XLL
    Format/Info                 : Digital Theater Systems
    Commercial name             : DTS-HD Master Audio
    Codec ID                    : A_DTS
    Duration                    : 1 h 23 min
    Bit rate mode               : Variable
    Bit rate                    : 4 129 kb/s
    Channel(s)                  : 6 channels
    Channel layout              : C L R Ls Rs LFE
    Sampling rate               : 48.0 kHz
    Frame rate                  : 93.750 FPS (512 SPF)
    Bit depth                   : 24 bits
    Compression mode            : Lossless
    Stream size                 : 2.42 GiB (14%)
    Language                    : Russian
    Default                     : No
    Forced                      : No
    Original source medium      : Blu-ray

    Text
    ID                          : 4
    Format                      : UTF-8
    Codec ID                    : S_TEXT/UTF8
    Codec ID/Info               : UTF-8 Plain Text
    Duration                    : 1 h 18 min
    Bit rate                    : 42 b/s
    Count of elements           : 851
    Stream size                 : 24.4 KiB (0%)
    Language                    : Spanish
    Default                     : No
    Forced                      : No

    Menu
    00:00:00.000                : en:Chapter 01
    00:08:16.287                : en:Chapter 02
    00:14:47.386                : en:Chapter 03
    00:20:18.759                : en:Chapter 04
    00:25:53.635                : en:Chapter 05
    00:33:40.518                : en:Chapter 06
    00:40:33.180                : en:Chapter 07
    00:47:14.289                : en:Chapter 08
    00:55:08.013                : en:Chapter 09
    01:01:40.905                : en:Chapter 10
    01:08:33.651                : en:Chapter 11
    01:18:24.408                : en:Chapter 12

  • Peso: 17.9 GiB

Sinopsis

Por equivocación, una torpe cigüeña entrega un panda bebé a la dirección incorrecta. Será entonces cuando un oso y sus amigos se embarquen en una audaz aventura para ayudar al pequeño panda a conocer finalmente a su verdadera familia y devolverlo a su hogar. ¿Lo lograrán?

Ficha técnica

Video trailer de la película

Enlaces de descarga

Rip de Bluray

Descargar ¿Quien Perdió Un Panda? (2019) REMUX 1080p Latino




Aportes de DPeliculasHDmega la pass es:dpeliculashdmega.org Aportes de CinemaniaHD la pass es:cinemaniahdd.com
Guardado en : Animación , Aventura , Comedia , Familia , Remux

Películas relacionadas

descargar ¿Quien Perdió Un Panda? (2019) REMUX 1080p Latino Full 1080p 1080p gratis, ¿Quien Perdió Un Panda? (2019) REMUX 1080p Latino Full 1080p mega 1 link, ¿Quien Perdió Un Panda? (2019) REMUX 1080p Latino Full 1080p pelicula completa, descargar ¿Quien Perdió Un Panda? (2019) REMUX 1080p Latino Full 1080p gratis en mega.

¿Quien Perdió Un Panda? (2019) REMUX 1080p Latino pelicula full hd, ¿Quien Perdió Un Panda? (2019) REMUX 1080p Latino mega latino, ¿Quien Perdió Un Panda? (2019) REMUX 1080p Latino 4k latino, ¿Quien Perdió Un Panda? (2019) REMUX 1080p Latino pelicula completa, ¿Quien Perdió Un Panda? (2019) REMUX 1080p Latino descargar gratis, descargar ¿Quien Perdió Un Panda? (2019) REMUX 1080p Latino pelicula latino, ¿Quien Perdió Un Panda? (2019) REMUX 1080p Latino 1 link mega, ¿Quien Perdió Un Panda? (2019) REMUX 1080p Latino 1 link google drive, ¿Quien Perdió Un Panda? (2019) REMUX 1080p Latino hd 1080p latino.
Comentarios 0