×

¿Problemas para descargar con Mozilla, EDGE? Deshabilita la opción "Abrir vinculos en una pestaña nueva" tal como lo muestra ésta imagen.

¿Quién mató a Sara? (2022) Temporada 3 NF WEB-DL 1080p Latino

263 vistas

Información de ¿Quién mató a Sara? (2022) Temporada 3 NF WEB-DL 1080p Latino

Datos de la película

  • Calidad: WEBDL
  • Audio: Español Latino AC3 5.1 Netflix
  • Subtitulos: Español Latino SRT
  • Resolución: 1920x1080p
  • Formato: MKV
  • Codec: H.264
  • Encoder: Melkor
  • Mediainfo: Clic para Mostrar Datos Ver
  • Quien mato a Sara S03E01 (2022) NF WebDL 1080p Latino.mkv
    Format                      : Matroska
    Format version              : Version 4
    File size                   : 942 MiB
    Duration                    : 38 min 28 s
    Overall bit rate mode       : Variable
    Overall bit rate            : 3 424 kb/s
    Movie name                  : Quien mato a Sara S03E01 - Presuncion de muerte CinemaniaHDD.Net
    Encoded date                : UTC 2022-05-22 23:36:41
    Writing application         : mkvmerge v56.1.0 ('My Friend') 64-bit
    Writing library             : libebml v1.4.2 + libmatroska v1.6.4
    Attachments                 : CINEMANIAHD.png

    Video
    ID                          : 1
    Format                      : AVC
    Format/Info                 : Advanced Video Codec
    Format profile              : High@L4
    Format settings             : CABAC / 4 Ref Frames
    Format settings, CABAC      : Yes
    Format settings, Reference  : 4 frames
    Codec ID                    : V_MPEG4/ISO/AVC
    Duration                    : 38 min 27 s
    Bit rate mode               : Variable
    Bit rate                    : 2 655 kb/s
    Maximum bit rate            : 20.0 Mb/s
    Width                       : 1 920 pixels
    Height                      : 1 080 pixels
    Display aspect ratio        : 16:9
    Frame rate mode             : Constant
    Frame rate                  : 23.976 (24000/1001) FPS
    Color space                 : YUV
    Chroma subsampling          : 4:2:0
    Bit depth                   : 8 bits
    Scan type                   : Progressive
    Bits/(Pixel*Frame)          : 0.053
    Stream size                 : 731 MiB (78%)
    Title                       : WEB HD1080p [CinemaniaHDD]
    Writing library             : x264 core 148 r2727 7d026e8
    Encoding settings           : cabac=1 / ref=4 / deblock=1:0:0 / analyse=0x3:0x111 / me=umh / subme=10 / psy=1 / psy_rd=1.00:0.00 / mixed_ref=1 / me_range=120 / chroma_me=1 / trellis=2 / 8x8dct=1 / cqm=0 / deadzone=21,11 / fast_pskip=1 / chroma_qp_offset=-2 / threads=8 / lookahead_threads=2 / sliced_threads=0 / nr=0 / decimate=1 / interlaced=0 / bluray_compat=0 / stitchable=1 / constrained_intra=0 / bframes=16 / b_pyramid=2 / b_adapt=2 / b_bias=0 / direct=3 / weightb=1 / open_gop=0 / weightp=2 / keyint=240 / keyint_min=121 / scenecut=0 / intra_refresh=0 / rc_lookahead=240 / rc=crf / mbtree=1 / crf=20.0 / qcomp=0.50 / qpmin=6 / qpmax=51 / qpstep=4 / vbv_maxrate=20000 / vbv_bufsize=25000 / crf_max=0.0 / nal_hrd=vbr / filler=0 / ip_ratio=1.40 / aq=1:0.80
    Default                     : Yes
    Forced                      : Yes

    Audio
    ID                          : 2
    Format                      : E-AC-3 JOC
    Format/Info                 : Enhanced AC-3 with Joint Object Coding
    Commercial name             : Dolby Digital Plus with Dolby Atmos
    Codec ID                    : A_EAC3
    Duration                    : 38 min 28 s
    Bit rate mode               : Constant
    Bit rate                    : 768 kb/s
    Channel(s)                  : 6 channels
    Channel layout              : L R C LFE Ls Rs
    Sampling rate               : 48.0 kHz
    Frame rate                  : 31.250 FPS (1536 SPF)
    Compression mode            : Lossy
    Stream size                 : 211 MiB (22%)
    Title                       : Español Latino [CinemaniaHDD]
    Language                    : Spanish
    Service kind                : Complete Main
    Default                     : Yes
    Forced                      : Yes
    Complexity index            : 16
    Number of dynamic objects   : 15
    Bed channel count           : 1 channel
    Bed channel configuration   : LFE

    Text #1
    ID                          : 3
    Format                      : UTF-8
    Codec ID                    : S_TEXT/UTF8
    Codec ID/Info               : UTF-8 Plain Text
    Duration                    : 959 ms
    Bit rate                    : 50 b/s
    Count of elements           : 1
    Stream size                 : 6.00 Bytes (0%)
    Title                       : Forzados-SRT [CinemaniaHDD]
    Language                    : Spanish
    Default                     : Yes
    Forced                      : Yes

    Text #2
    ID                          : 4
    Format                      : UTF-8
    Codec ID                    : S_TEXT/UTF8
    Codec ID/Info               : UTF-8 Plain Text
    Duration                    : 33 min 10 s
    Bit rate                    : 77 b/s
    Count of elements           : 443
    Stream size                 : 18.8 KiB (0%)
    Title                       : Español-SRT [CinemaniaHDD]
    Language                    : Spanish
    Default                     : No
    Forced                      : No

  • Peso: 1.15 GiB Aprox C/U. - 7.74 GiB - 7 Chapters

Sinopsis

Descargar ¿Quién mató a Sara? (2022) Temporada 3 NF WEB-DL 1080p Latino. Tras 18 años de encarcelamiento injusto, Alex Guzmán es liberado con el plan perfecto para descubrir quién mató a su hermana Sara y por qué la familia Lazcano lo culpó del crimen. Lo que no sabe, es que la búsqueda de pruebas lo llevará por un desvío mucho más peligroso de lo que imaginaba. Cuando finalmente se enfrente al verdadero culpable, Alex deseará no haber buscado su venganza.

Alex descubre que tiene una sobrina que es idéntica a su hermana Sara, el papá de Nicandro es el que está detrás de todo lo que ha pasado con Sara.

Ficha técnica

Video trailer de la película

Enlaces de descarga

Rip de Bluray

Descargar ¿Quién mató a Sara? (2022) Temporada 3 NF WEB-DL 1080p Latino




Aportes de DPeliculasHDmega la pass es:dpeliculashdmega.org Aportes de CinemaniaHD la pass es:cinemaniahdd.com
Guardado en : Crimen , Drama , Misterio , Netflix , Series

Películas relacionadas

descargar ¿Quién mató a Sara? (2022) Temporada 3 NF WEB-DL 1080p Latino WEBDL 1080p gratis, ¿Quién mató a Sara? (2022) Temporada 3 NF WEB-DL 1080p Latino WEBDL mega 1 link, ¿Quién mató a Sara? (2022) Temporada 3 NF WEB-DL 1080p Latino WEBDL serie completa, descargar ¿Quién mató a Sara? (2022) Temporada 3 NF WEB-DL 1080p Latino WEBDL gratis en mega.

¿Quién mató a Sara? (2022) Temporada 3 NF WEB-DL 1080p Latino pelicula full hd, ¿Quién mató a Sara? (2022) Temporada 3 NF WEB-DL 1080p Latino mega latino, ¿Quién mató a Sara? (2022) Temporada 3 NF WEB-DL 1080p Latino 4k latino, ¿Quién mató a Sara? (2022) Temporada 3 NF WEB-DL 1080p Latino pelicula completa, ¿Quién mató a Sara? (2022) Temporada 3 NF WEB-DL 1080p Latino descargar gratis, descargar ¿Quién mató a Sara? (2022) Temporada 3 NF WEB-DL 1080p Latino pelicula latino, ¿Quién mató a Sara? (2022) Temporada 3 NF WEB-DL 1080p Latino 1 link mega, ¿Quién mató a Sara? (2022) Temporada 3 NF WEB-DL 1080p Latino 1 link google drive, ¿Quién mató a Sara? (2022) Temporada 3 NF WEB-DL 1080p Latino hd 1080p latino.
Comentarios 0