×

¿Problemas para descargar con Mozilla, EDGE? Deshabilita la opción "Abrir vinculos en una pestaña nueva" tal como lo muestra ésta imagen.

¿Quién mató a Sara? (2021) Temporada 1 NF WEB-DL 1080p Latino

177 vistas

Información de ¿Quién mató a Sara? (2021) Temporada 1 NF WEB-DL 1080p Latino

Datos de la película

  • Calidad: WEBDL
  • Audio: Español Latino AC3 5.1 Netflix
  • Subtitulos: Español Latino SRT
  • Resolución: 1920x1080p
  • Formato: MKV
  • Codec: H.264
  • Encoder: Melkor
  • Mediainfo: Clic para Mostrar Datos Ver
  • Quien mato a Sara S01E01 (2021) NF WebDL 1080p Latino.mkv
    Format                      : Matroska
    Format version              : Version 4
    File size                   : 985 MiB
    Duration                    : 40 min 5 s
    Overall bit rate mode       : Variable
    Overall bit rate            : 3 434 kb/s
    Movie name                  : Quien mato a Sara S01E01 - No fue un error CinemaniaHDD.Net
    Encoded date                : UTC 2022-05-22 22:58:19
    Writing application         : mkvmerge v56.1.0 ('My Friend') 64-bit
    Writing library             : libebml v1.4.2 + libmatroska v1.6.4
    Attachments                 : CINEMANIAHD.png

    Video
    ID                          : 1
    Format                      : AVC
    Format/Info                 : Advanced Video Codec
    Format profile              : Main@L4
    Format settings             : CABAC / 3 Ref Frames
    Format settings, CABAC      : Yes
    Format settings, Reference  : 3 frames
    Codec ID                    : V_MPEG4/ISO/AVC
    Duration                    : 40 min 4 s
    Bit rate mode               : Variable
    Bit rate                    : 2 792 kb/s
    Nominal bit rate            : 4 020 kb/s
    Maximum bit rate            : 6 030 kb/s
    Width                       : 1 920 pixels
    Height                      : 1 080 pixels
    Display aspect ratio        : 16:9
    Frame rate mode             : Constant
    Frame rate                  : 23.976 (24000/1001) FPS
    Color space                 : YUV
    Chroma subsampling          : 4:2:0
    Bit depth                   : 8 bits
    Scan type                   : Progressive
    Bits/(Pixel*Frame)          : 0.056
    Stream size                 : 800 MiB (81%)
    Title                       : WEB HD1080p [CinemaniaHDD]
    Writing library             : x264 core 148 r2722 1b0121b
    Encoding settings           : cabac=1 / ref=3 / deblock=1:0:0 / analyse=0x1:0x111 / me=umh / subme=10 / psy=1 / psy_rd=1.00:0.00 / mixed_ref=1 / me_range=24 / chroma_me=1 / trellis=2 / 8x8dct=0 / cqm=0 / deadzone=21,11 / fast_pskip=1 / chroma_qp_offset=-2 / threads=8 / lookahead_threads=1 / sliced_threads=0 / nr=0 / decimate=1 / interlaced=0 / bluray_compat=0 / stitchable=1 / constrained_intra=0 / bframes=2 / b_pyramid=0 / b_adapt=2 / b_bias=0 / direct=3 / weightb=1 / open_gop=0 / weightp=2 / keyint=250 / keyint_min=23 / scenecut=0 / intra_refresh=0 / rc_lookahead=48 / rc=2pass / mbtree=1 / bitrate=4020 / ratetol=1.0 / qcomp=0.50 / qpmin=6 / qpmax=51 / qpstep=4 / cplxblur=20.0 / qblur=0.5 / vbv_maxrate=6030 / vbv_bufsize=8040 / nal_hrd=vbr / filler=0 / ip_ratio=1.40 / aq=1:1.00
    Default                     : Yes
    Forced                      : Yes

    Audio
    ID                          : 2
    Format                      : E-AC-3
    Format/Info                 : Enhanced AC-3
    Commercial name             : Dolby Digital Plus
    Codec ID                    : A_EAC3
    Duration                    : 40 min 5 s
    Bit rate mode               : Constant
    Bit rate                    : 640 kb/s
    Channel(s)                  : 6 channels
    Channel layout              : L R C LFE Ls Rs
    Sampling rate               : 48.0 kHz
    Frame rate                  : 31.250 FPS (1536 SPF)
    Compression mode            : Lossy
    Stream size                 : 183 MiB (19%)
    Title                       : Español Latino [CinemaniaHDD]
    Language                    : Spanish
    Service kind                : Complete Main
    Default                     : Yes
    Forced                      : Yes

    Text
    ID                          : 3
    Format                      : UTF-8
    Codec ID                    : S_TEXT/UTF8
    Codec ID/Info               : UTF-8 Plain Text
    Duration                    : 35 min 11 s
    Bit rate                    : 52 b/s
    Count of elements           : 457
    Stream size                 : 13.6 KiB (0%)
    Title                       : Español-SRT [CinemaniaHDD]
    Language                    : Spanish
    Default                     : No
    Forced                      : No

  • Peso: 950MiB Aprox C/U. - 8.91 GiB - 10 Chapters

Sinopsis

Descargar ¿Quién mató a Sara? (2021) Temporada 1 NF WEB-DL 1080p Latino. Tras 18 años de encarcelamiento injusto, Alex Guzmán es liberado con el plan perfecto para descubrir quién mató a su hermana Sara y por qué la familia Lazcano lo culpó del crimen. Lo que no sabe, es que la búsqueda de pruebas lo llevará por un desvío mucho más peligroso de lo que imaginaba. Cuando finalmente se enfrente al verdadero culpable, Alex deseará no haber buscado su venganza.

Ficha técnica

Video trailer de la película

Enlaces de descarga

Rip de Bluray

Descargar ¿Quién mató a Sara? (2021) Temporada 1 NF WEB-DL 1080p Latino




Aportes de DPeliculasHDmega la pass es:dpeliculashdmega.org Aportes de CinemaniaHD la pass es:cinemaniahdd.com
Guardado en : Crimen , Drama , Misterio , Netflix , Series

Películas relacionadas

descargar ¿Quién mató a Sara? (2021) Temporada 1 NF WEB-DL 1080p Latino WEBDL 1080p gratis, ¿Quién mató a Sara? (2021) Temporada 1 NF WEB-DL 1080p Latino WEBDL mega 1 link, ¿Quién mató a Sara? (2021) Temporada 1 NF WEB-DL 1080p Latino WEBDL serie completa, descargar ¿Quién mató a Sara? (2021) Temporada 1 NF WEB-DL 1080p Latino WEBDL gratis en mega.

¿Quién mató a Sara? (2021) Temporada 1 NF WEB-DL 1080p Latino pelicula full hd, ¿Quién mató a Sara? (2021) Temporada 1 NF WEB-DL 1080p Latino mega latino, ¿Quién mató a Sara? (2021) Temporada 1 NF WEB-DL 1080p Latino 4k latino, ¿Quién mató a Sara? (2021) Temporada 1 NF WEB-DL 1080p Latino pelicula completa, ¿Quién mató a Sara? (2021) Temporada 1 NF WEB-DL 1080p Latino descargar gratis, descargar ¿Quién mató a Sara? (2021) Temporada 1 NF WEB-DL 1080p Latino pelicula latino, ¿Quién mató a Sara? (2021) Temporada 1 NF WEB-DL 1080p Latino 1 link mega, ¿Quién mató a Sara? (2021) Temporada 1 NF WEB-DL 1080p Latino 1 link google drive, ¿Quién mató a Sara? (2021) Temporada 1 NF WEB-DL 1080p Latino hd 1080p latino.
Comentarios 0