¿Quién mato a los Puppets? (2018) 1080p Latino

1.104 vistas
1 estrella2 estrellas3 estrellas4 estrellas5 estrellas (1 votos, promedio: 5,00 de 5)
Cargando…

Información de ¿Quién mato a los Puppets? (2018) 1080p Latino

Datos de la película

  • Calidad: 1080p
  • Audio: Español Latino AC3 5.1 DVD - Ingles AC3 5.1 BLURAY
  • Subtitulos: Español Latino SRT- FORZADOS SRT
  • Resolución: 1920x800
  • Formato: MKV
  • Codec: H.264
  • Encoder: Chesse92
  • Mediainfo: Clic para Mostrar Datos Ver
  • Quien Mato a los Puppets (2018) 1080p Latino.mkv
    Format                      : Matroska
    Format version              : Version 4 / Version 2
    File size                   : 2.75 GiB
    Duration                    : 1 h 30 min
    Overall bit rate            : 4 342 kb/s
    Movie name                  : CinemaniaHDD.NET
    Encoded date                : UTC 2018-11-24 05:30:16
    Writing application         : mkvmerge v25.0.0 ('Prog Noir') 64-bit
    Writing library             : libebml v1.3.6 + libmatroska v1.4.9

    Video
    ID                          : 1
    Format                      : AVC
    Format/Info                 : Advanced Video Codec
    Format profile              : High@L4.1
    Format settings             : CABAC / 5 Ref Frames
    Format settings, CABAC      : Yes
    Format settings, RefFrames  : 5 frames
    Codec ID                    : V_MPEG4/ISO/AVC
    Duration                    : 1 h 30 min
    Bit rate                    : 3 500 kb/s
    Width                       : 1 920 pixels
    Height                      : 800 pixels
    Display aspect ratio        : 2.40:1
    Frame rate mode             : Constant
    Frame rate                  : 23.976 (24000/1001) FPS
    Color space                 : YUV
    Chroma subsampling          : 4:2:0
    Bit depth                   : 8 bits
    Scan type                   : Progressive
    Bits/(Pixel*Frame)          : 0.095
    Stream size                 : 2.23 GiB (81%)
    Title                       : HD1080p [Bluray]
    Writing library             : x264 core 155 r2893 b00bcaf
    Encoding settings           : cabac=1 / ref=5 / deblock=1:0:0 / analyse=0x3:0x113 / me=hex / subme=8 / psy=1 / psy_rd=1.00:0.00 / mixed_ref=1 / me_range=16 / chroma_me=1 / trellis=2 / 8x8dct=1 / cqm=0 / deadzone=21,11 / fast_pskip=1 / chroma_qp_offset=-2 / threads=25 / lookahead_threads=4 / sliced_threads=0 / nr=0 / decimate=1 / interlaced=0 / bluray_compat=0 / constrained_intra=0 / bframes=3 / b_pyramid=2 / b_adapt=1 / b_bias=0 / direct=3 / weightb=1 / open_gop=0 / weightp=2 / keyint=240 / keyint_min=24 / scenecut=40 / intra_refresh=0 / rc_lookahead=50 / rc=abr / mbtree=1 / bitrate=3500 / ratetol=1.0 / qcomp=0.60 / qpmin=0 / qpmax=69 / qpstep=4 / vbv_maxrate=62500 / vbv_bufsize=78125 / nal_hrd=none / filler=0 / ip_ratio=1.40 / aq=1:1.00
    Default                     : Yes
    Forced                      : No
    Color range                 : Limited
    Color primaries             : BT.709
    Transfer characteristics    : BT.709
    Matrix coefficients         : BT.709

    Audio #1
    ID                          : 2
    Format                      : AC-3
    Format/Info                 : Audio Coding 3
    Format settings, Endianness : Big
    Codec ID                    : A_AC3
    Duration                    : 1 h 30 min
    Bit rate mode               : Constant
    Bit rate                    : 384 kb/s
    Channel(s)                  : 6 channels
    Channel positions           : Front: L C R, Side: L R, LFE
    Sampling rate               : 48.0 kHz
    Frame rate                  : 31.250 FPS (1536 SPF)
    Bit depth                   : 16 bits
    Compression mode            : Lossy
    Delay relative to video     : -5 ms
    Stream size                 : 249 MiB (9%)
    Title                       : AC3_5.1_DVD_Esp
    Language                    : Spanish
    Service kind                : Complete Main
    Default                     : Yes
    Forced                      : Yes

    Audio #2
    ID                          : 3
    Format                      : AC-3
    Format/Info                 : Audio Coding 3
    Format settings, Endianness : Big
    Codec ID                    : A_AC3
    Duration                    : 1 h 30 min
    Bit rate mode               : Constant
    Bit rate                    : 448 kb/s
    Channel(s)                  : 6 channels
    Channel positions           : Front: L C R, Side: L R, LFE
    Sampling rate               : 48.0 kHz
    Frame rate                  : 31.250 FPS (1536 SPF)
    Bit depth                   : 16 bits
    Compression mode            : Lossy
    Stream size                 : 291 MiB (10%)
    Title                       : AC3_5.1_Bluray_Eng
    Language                    : English
    Service kind                : Complete Main
    Default                     : No
    Forced                      : No

    Text #1
    ID                          : 4
    Format                      : UTF-8
    Codec ID                    : S_TEXT/UTF8
    Codec ID/Info               : UTF-8 Plain Text
    Duration                    : 1 h 5 min
    Bit rate                    : 0 b/s
    Count of elements           : 7
    Stream size                 : 258 Bytes (0%)
    Title                       : Sub_Forzados
    Language                    : Spanish
    Default                     : Yes
    Forced                      : No

    Text #2
    ID                          : 5
    Format                      : UTF-8
    Codec ID                    : S_TEXT/UTF8
    Codec ID/Info               : UTF-8 Plain Text
    Duration                    : 1 h 19 min
    Bit rate                    : 90 b/s
    Count of elements           : 1557
    Stream size                 : 52.2 KiB (0%)
    Title                       : Sub_Esp
    Language                    : Spanish
    Default                     : No
    Forced                      : No

    Menu
    00:00:00.000                : :Chapter 1
    00:08:35.807                : :Chapter 2
    00:15:13.037                : :Chapter 3
    00:22:23.717                : :Chapter 4
    00:31:17.292                : :Chapter 5
    00:38:13.249                : :Chapter 6
    00:44:11.941                : :Chapter 7
    00:51:28.794                : :Chapter 8
    01:00:52.566                : :Chapter 9
    01:08:02.704                : :Chapter 10
    01:14:15.910                : :Chapter 11
    01:20:37.583                : :Chapter 12

  • Peso: 2,75 GiB

Sinopsis

Descargar ¿Quién mato a los Puppets? (2018) 1080p Latino, Mega, Google Drive. En el barrio más vulnerable de Los Ángeles, donde cohabitan muñecos y humanos, dos detectives enfrentados, un humano y un moñeco, se ven obligados a trabajar juntos para tratar de averiguar quién está asesinando brutalmente al antiguo elenco de “The Happytime Gang”, un exitoso programa de marionetas de los años 80

Ficha técnica

  • Titulo original: The Happytime Murders
  • Fecha de lanzamiento: 22-08-2018 (China, United States of America)
  • Director: Brian Henson
  • Género: Acción, Comedia, Crimen, HD 1080p
  • Puntuación: 5.0 1 votos
  • Duración:
    1h 31m

Video trailer de la película

Enlaces de descarga

Rip de Bluray

Descargar ¿Quién mato a los Puppets? (2018) 1080p Latino




Aportes de DPeliculasHDmega la pass es:dpeliculashdmega.org Aportes de CinemaniaHD la pass es:cinemaniahdd.com
Guardado en : Acción , Comedia , Crimen , HD 1080p

Películas relacionadas

  • Godzilla (2014) 1080p Latino

    2014
    Godzilla (2014) 1080p Latino

    0.0 2h 3m 2014

    Descargar Godzilla (2014) 1080p Latino, Mega, Google Drive, Torrent. Gareth Edwards dirige este "reboot",...

    Director: Jessica Clothier

    Género: Acción

    Actores: Yuki Morita

  • Godzilla (2014) Full 1080p Latino

    2014
    Godzilla (2014) Full 1080p Latino

    4.2 2h 3m 2014

    Descargar Godzilla (2014) Full 1080p Latino, Mega, Google Drive, Torrent. Gareth Edwards dirige este...

    Director: Jessica Clothier

    Género: Acción

    Actores: Yuki Morita

  • Un pequeño favor (2018) Full 1080p Latino

    2018
    Un pequeño favor (2018) Full 1080p Latino

    5.0 1h 57m 2018

    Descargar Un pequeño favor (2018) Full 1080p Latino, Mega, Google Drive, Torrent. Stephanie es una joven...

    Director: Paul Feig

    Género: Crimen

    Actores: Zach Smadu

Comentarios 0