×

¿Problemas para descargar con Mozilla, EDGE? Deshabilita la opción "Abrir vinculos en una pestaña nueva" tal como lo muestra ésta imagen.

¿Quién engañó a Roger Rabbit? (1988) Web-DL 4K UHD HDR Latino

1.467 vistas

Información de ¿Quién engañó a Roger Rabbit? (1988) Web-DL 4K UHD HDR Latino

Datos de la película

  • Calidad: 4K HDR
  • Audio: Se especifica abajo de la Sinopsis
  • Subtitulos: Español Latino SRT - Ingles SRT
  • Resolución: 3840x2160p
  • Formato: MKV
  • Codec: HEVC
  • Encoder: CinefiloCool
  • Mediainfo: Clic para Mostrar Datos Ver
  • Quien Engaño a Roger Rabbit (1988) Web-DL UHD HDR Latino-CMHDD.mkv
    Format                      : Matroska
    Format version              : Version 4
    File size                   : 12.6 GiB
    Duration                    : 1 h 43 min
    Overall bit rate            : 17.3 Mb/s
    Movie name                  : CinemaniaHDD.Net
    Encoded date                : UTC 2020-03-02 20:44:47
    Writing application         : mkvmerge v42.0.0 ('Overtime') 64-bit
    Writing library             : libebml v1.3.10 + libmatroska v1.5.2
    Attachments                 : CINEMANIAHD.png

    Video
    ID                          : 1
    Format                      : HEVC
    Format/Info                 : High Efficiency Video Coding
    Format profile              : Main 10@L5@High
    Codec ID                    : V_MPEGH/ISO/HEVC
    Duration                    : 1 h 43 min
    Bit rate                    : 16.3 Mb/s
    Width                       : 3 840 pixels
    Height                      : 2 160 pixels
    Display aspect ratio        : 16:9
    Frame rate mode             : Constant
    Frame rate                  : 23.976 (24000/1001) FPS
    Color space                 : YUV
    Chroma subsampling          : 4:2:0
    Bit depth                   : 10 bits
    Bits/(Pixel*Frame)          : 0.082
    Stream size                 : 11.8 GiB (94%)
    Title                       : 2160p HDR [Web]
    Default                     : Yes
    Forced                      : Yes
    Color range                 : Limited
    Color primaries             : BT.2020
    Transfer characteristics    : PQ
    Matrix coefficients         : BT.2020 non-constant

    Audio #1
    ID                          : 2
    Format                      : AC-3
    Format/Info                 : Audio Coding 3
    Commercial name             : Dolby Digital
    Codec ID                    : A_AC3
    Duration                    : 1 h 43 min
    Bit rate mode               : Constant
    Bit rate                    : 256 kb/s
    Channel(s)                  : 2 channels
    Channel layout              : L R
    Sampling rate               : 48.0 kHz
    Frame rate                  : 31.250 FPS (1536 SPF)
    Bit depth                   : 16 bits
    Compression mode            : Lossy
    Delay relative to video     : 23 ms
    Stream size                 : 190 MiB (1%)
    Title                       : AC3_2.0_DVD_Esp
    Language                    : Spanish
    Service kind                : Complete Main
    Default                     : Yes
    Forced                      : Yes

    Audio #2
    ID                          : 3
    Format                      : E-AC-3 JOC
    Format/Info                 : Enhanced AC-3 with Joint Object Coding
    Commercial name             : Dolby Digital Plus with Dolby Atmos
    Codec ID                    : A_EAC3
    Duration                    : 1 h 43 min
    Bit rate mode               : Constant
    Bit rate                    : 768 kb/s
    Channel(s)                  : 6 channels
    Channel layout              : L R C LFE Ls Rs
    Sampling rate               : 48.0 kHz
    Frame rate                  : 31.250 FPS (1536 SPF)
    Compression mode            : Lossy
    Stream size                 : 571 MiB (4%)
    Title                       : DDP_5.1_Web_Eng
    Language                    : English
    Service kind                : Complete Main
    Default                     : No
    Forced                      : No
    Complexity index            : 16
    Number of dynamic objects   : 15
    Bed channel count           : 1 channel
    Bed channel configuration   : LFE

    Text #1
    ID                          : 4
    Format                      : UTF-8
    Codec ID                    : S_TEXT/UTF8
    Codec ID/Info               : UTF-8 Plain Text
    Duration                    : 1 h 32 min
    Bit rate                    : 1 b/s
    Count of elements           : 39
    Stream size                 : 879 Bytes (0%)
    Title                       : Sub_Forzados
    Language                    : Spanish
    Default                     : Yes
    Forced                      : Yes

    Text #2
    ID                          : 5
    Format                      : UTF-8
    Codec ID                    : S_TEXT/UTF8
    Codec ID/Info               : UTF-8 Plain Text
    Duration                    : 1 h 36 min
    Bit rate                    : 56 b/s
    Count of elements           : 1150
    Stream size                 : 40.3 KiB (0%)
    Title                       : Sub_Esp
    Language                    : Spanish
    Default                     : No
    Forced                      : No

    Text #3
    ID                          : 6
    Format                      : UTF-8
    Codec ID                    : S_TEXT/UTF8
    Codec ID/Info               : UTF-8 Plain Text
    Duration                    : 1 h 36 min
    Bit rate                    : 60 b/s
    Count of elements           : 1214
    Stream size                 : 42.7 KiB (0%)
    Title                       : Sub_Eng
    Language                    : English
    Default                     : No
    Forced                      : No

  • Peso: 12.6 GiB

Sinopsis

Descargar ¿Quién engañó a Roger Rabbit? (1988) Web-DL 4K UHD HDR Latino. Hollywood, 1947. Eddie Valiant (Bob Hoskins), un detective de poca monta, ha sido contratado para encontrar pruebas que demuestren que Marvin Acme, magnate del negocio de los artículos de broma y dueño de Toontown, está rondando a Jessica Rabbit, mujer fatal y esposa de la superestrella del Marron Cartoon, Roger Rabbit. Cuando Acme aparece asesinado, todas las pruebas apuntan a Roger, y el siniestro y ambicioso Juez Doom (Christopher Lloyd) está decidido a condenarlo como sea. Roger suplica a Valiant que le ayude a encontrar al verdadero culpable, pero el asunto se irá complicando a medida que Eddie va descubriendo, escándalo tras escándalo, que la propia existencia de Toontown corre peligro.

Audio Español Latino AC3 2.0 DVD – Ingles EAC3 5.1 Web-DL

Ficha técnica

Video trailer de la película

Enlaces de descarga

Rip de Bluray

Descargar ¿Quién engañó a Roger Rabbit? (1988) Web-DL 4K UHD HDR Latino




Aportes de DPeliculasHDmega la pass es:dpeliculashdmega.org Aportes de CinemaniaHD la pass es:cinemaniahdd.com

Películas relacionadas

descargar ¿Quién engañó a Roger Rabbit? (1988) Web-DL 4K UHD HDR Latino 4K HDR 1080p gratis, ¿Quién engañó a Roger Rabbit? (1988) Web-DL 4K UHD HDR Latino 4K HDR mega 1 link, ¿Quién engañó a Roger Rabbit? (1988) Web-DL 4K UHD HDR Latino 4K HDR pelicula completa, descargar ¿Quién engañó a Roger Rabbit? (1988) Web-DL 4K UHD HDR Latino 4K HDR gratis en mega.

¿Quién engañó a Roger Rabbit? (1988) Web-DL 4K UHD HDR Latino pelicula full hd, ¿Quién engañó a Roger Rabbit? (1988) Web-DL 4K UHD HDR Latino mega latino, ¿Quién engañó a Roger Rabbit? (1988) Web-DL 4K UHD HDR Latino 4k latino, ¿Quién engañó a Roger Rabbit? (1988) Web-DL 4K UHD HDR Latino pelicula completa, ¿Quién engañó a Roger Rabbit? (1988) Web-DL 4K UHD HDR Latino descargar gratis, descargar ¿Quién engañó a Roger Rabbit? (1988) Web-DL 4K UHD HDR Latino pelicula latino, ¿Quién engañó a Roger Rabbit? (1988) Web-DL 4K UHD HDR Latino 1 link mega, ¿Quién engañó a Roger Rabbit? (1988) Web-DL 4K UHD HDR Latino 1 link google drive, ¿Quién engañó a Roger Rabbit? (1988) Web-DL 4K UHD HDR Latino hd 1080p latino.
Comentarios 0