×

¿Problemas para descargar con Mozilla, EDGE? Deshabilita la opción "Abrir vinculos en una pestaña nueva" tal como lo muestra ésta imagen.

¿Qué culpa tiene el karma? (2022) NF WEB-DL 1080p latino

251 vistas

Información de ¿Qué culpa tiene el karma? (2022) NF WEB-DL 1080p latino

Datos de la película

  • Calidad: WEBDL
  • Audio: Español Latino AC3 5.1 Netflix
  • Subtitulos: No
  • Resolución: 1920x1080p
  • Formato: MKV
  • Codec: H.264
  • Encoder: Melkor
  • Mediainfo: Clic para Mostrar Datos Ver
  • Que Culpa Tiene El Karma (2022) NF WebDL 1080p Latino.mkv
    Format                      : Matroska
    Format version              : Version 4
    File size                   : 3.33 GiB
    Duration                    : 1 h 25 min
    Overall bit rate mode       : Variable
    Overall bit rate            : 5 545 kb/s
    Movie name                  : Que Culpa Tiene El Karma (2022) CinemaniaHDD.Net
    Encoded date                : UTC 2022-08-06 01:59:56
    Writing application         : mkvmerge v56.1.0 ('My Friend') 64-bit
    Writing library             : libebml v1.4.2 + libmatroska v1.6.4
    Attachments                 : CINEMANIAHD.png

    Video
    ID                          : 1
    Format                      : AVC
    Format/Info                 : Advanced Video Codec
    Format profile              : Main@L4
    Format settings             : CABAC / 3 Ref Frames
    Format settings, CABAC      : Yes
    Format settings, Reference  : 3 frames
    Codec ID                    : V_MPEG4/ISO/AVC
    Duration                    : 1 h 25 min
    Bit rate mode               : Variable
    Bit rate                    : 4 263 kb/s
    Nominal bit rate            : 4 870 kb/s
    Maximum bit rate            : 7 305 kb/s
    Width                       : 1 920 pixels
    Height                      : 1 080 pixels
    Display aspect ratio        : 16:9
    Frame rate mode             : Constant
    Frame rate                  : 23.976 (24000/1001) FPS
    Color space                 : YUV
    Chroma subsampling          : 4:2:0
    Bit depth                   : 8 bits
    Scan type                   : Progressive
    Bits/(Pixel*Frame)          : 0.086
    Stream size                 : 2.56 GiB (77%)
    Title                       : WEB HD1080p [CinemaniaHDD]
    Writing library             : x264 core 148 r2727 7d026e8
    Encoding settings           : cabac=1 / ref=3 / deblock=1:0:0 / analyse=0x1:0x111 / me=umh / subme=10 / psy=1 / psy_rd=1.00:0.00 / mixed_ref=1 / me_range=24 / chroma_me=1 / trellis=2 / 8x8dct=0 / cqm=0 / deadzone=21,11 / fast_pskip=1 / chroma_qp_offset=-2 / threads=8 / lookahead_threads=1 / sliced_threads=0 / nr=0 / decimate=1 / interlaced=0 / bluray_compat=0 / stitchable=1 / constrained_intra=0 / bframes=2 / b_pyramid=0 / b_adapt=2 / b_bias=0 / direct=3 / weightb=1 / open_gop=0 / weightp=2 / keyint=250 / keyint_min=23 / scenecut=0 / intra_refresh=0 / rc_lookahead=48 / rc=2pass / mbtree=1 / bitrate=4870 / ratetol=1.0 / qcomp=0.50 / qpmin=6 / qpmax=51 / qpstep=4 / cplxblur=20.0 / qblur=0.5 / vbv_maxrate=7305 / vbv_bufsize=9740 / nal_hrd=vbr / filler=0 / ip_ratio=1.40 / aq=1:1.00
    Default                     : Yes
    Forced                      : Yes

    Audio #1
    ID                          : 2
    Format                      : AC-3
    Format/Info                 : Audio Coding 3
    Commercial name             : Dolby Digital
    Codec ID                    : A_AC3
    Duration                    : 1 h 25 min
    Bit rate mode               : Constant
    Bit rate                    : 640 kb/s
    Channel(s)                  : 6 channels
    Channel layout              : L R C LFE Ls Rs
    Sampling rate               : 48.0 kHz
    Frame rate                  : 31.250 FPS (1536 SPF)
    Compression mode            : Lossy
    Stream size                 : 393 MiB (12%)
    Title                       : Español Latino AC3 [CinemaniaHDD]
    Language                    : Spanish
    Service kind                : Complete Main
    Default                     : Yes
    Forced                      : Yes

    Audio #2
    ID                          : 3
    Format                      : E-AC-3
    Format/Info                 : Enhanced AC-3
    Commercial name             : Dolby Digital Plus
    Codec ID                    : A_EAC3
    Duration                    : 1 h 25 min
    Bit rate mode               : Constant
    Bit rate                    : 640 kb/s
    Channel(s)                  : 6 channels
    Channel layout              : L R C LFE Ls Rs
    Sampling rate               : 48.0 kHz
    Frame rate                  : 31.250 FPS (1536 SPF)
    Compression mode            : Lossy
    Stream size                 : 393 MiB (12%)
    Title                       : Español Latino EAC3 [CinemaniaHDD]
    Language                    : Spanish
    Service kind                : Complete Main
    Default                     : No
    Forced                      : No

  • Peso: 3.33 GiB

Sinopsis

Descargar ¿Qué culpa tiene el karma? (2022) NF WEB-DL 1080p latino. Las tribulaciones de Sara, una diseñadora de moda frustrada que culpa al karma de su mala suerte. El destino la pondrá cara a cara con su hermana Lucy, que disfruta de muy distinta suerte, y en una serie de acontecimientos y reencuentros que la llevarán a tomar una radical decisión.

Ficha técnica

Video trailer de la película

Enlaces de descarga

Rip de Bluray

Descargar ¿Qué culpa tiene el karma? (2022) NF WEB-DL 1080p latino




Aportes de DPeliculasHDmega la pass es:dpeliculashdmega.org Aportes de CinemaniaHD la pass es:cinemaniahdd.com
Guardado en : Comedia , Netflix , Romance

Películas relacionadas

descargar ¿Qué culpa tiene el karma? (2022) NF WEB-DL 1080p latino WEBDL 1080p gratis, ¿Qué culpa tiene el karma? (2022) NF WEB-DL 1080p latino WEBDL mega 1 link, ¿Qué culpa tiene el karma? (2022) NF WEB-DL 1080p latino WEBDL pelicula completa, descargar ¿Qué culpa tiene el karma? (2022) NF WEB-DL 1080p latino WEBDL gratis en mega.

¿Qué culpa tiene el karma? (2022) NF WEB-DL 1080p latino pelicula full hd, ¿Qué culpa tiene el karma? (2022) NF WEB-DL 1080p latino mega latino, ¿Qué culpa tiene el karma? (2022) NF WEB-DL 1080p latino 4k latino, ¿Qué culpa tiene el karma? (2022) NF WEB-DL 1080p latino pelicula completa, ¿Qué culpa tiene el karma? (2022) NF WEB-DL 1080p latino descargar gratis, descargar ¿Qué culpa tiene el karma? (2022) NF WEB-DL 1080p latino pelicula latino, ¿Qué culpa tiene el karma? (2022) NF WEB-DL 1080p latino 1 link mega, ¿Qué culpa tiene el karma? (2022) NF WEB-DL 1080p latino 1 link google drive, ¿Qué culpa tiene el karma? (2022) NF WEB-DL 1080p latino hd 1080p latino.
Comentarios 0