Quarry (2016) Primera Temporada Full 1080p Latino

554 vistas
1 estrella2 estrellas3 estrellas4 estrellas5 estrellas (2 votos, promedio: 3,00 de 5)
Cargando…

Información de Quarry (2016) Primera Temporada Full 1080p Latino

Datos de la película

  • Calidad: Full 1080p
  • Audio: Español Latino DTS 2.0 BLURAY - Ingles DTS 5.1 BLURAY
  • Subtitulos: Español Latino PGS - Ingles PGS
  • Resolución: 1920x1080p
  • Formato: MKV
  • Codec: H.264
  • Encoder: Dracarys
  • Mediainfo: Clic para Mostrar Datos Ver
  • Format                                   : Matroska
    Format version                           : Version 4 / Version 2
    File size                                : 2.74 GiB
    Duration                                 : 56 min 3 s
    Overall bit rate                         : 7 004 kb/s
    Movie name                               : CinemaniaHDD.net
    Encoded date                             : UTC 2018-11-10 20:33:43 / UTC 2018-11-04T06:49:19Z
    Writing application                      : mkvmerge v15.0.0 ('Duel with the Devil') 64-bit
    Writing library                          : libebml v1.3.5 + libmatroska v1.4.5 / Lavf57.7.2

    Video
    ID                                       : 1
    Format                                   : AVC
    Format/Info                              : Advanced Video Codec
    Format profile                           : [email protected]
    Format settings                          : CABAC / 4 Ref Frames
    Format settings, CABAC                   : Yes
    Format settings, RefFrames               : 4 frames
    Codec ID                                 : V_MPEG4/ISO/AVC
    Duration                                 : 56 min 3 s
    Bit rate                                 : 4 587 kb/s
    Width                                    : 1 920 pixels
    Height                                   : 1 080 pixels
    Display aspect ratio                     : 16:9
    Frame rate mode                          : Constant
    Frame rate                               : 23.976 (24000/1001) FPS
    Color space                              : YUV
    Chroma subsampling                       : 4:2:0
    Bit depth                                : 8 bits
    Scan type                                : Progressive
    Bits/(Pixel*Frame)                       : 0.092
    Stream size                              : 1.80 GiB (65%)
    Writing library                          : x264 core 148 r2708 86b7198
    Encoding settings                        : cabac=1 / ref=4 / deblock=1:0:0 / analyse=0x3:0x133 / me=esa / subme=10 / psy=1 / psy_rd=1.00:0.00 / mixed_ref=1 / me_range=24 / chroma_me=1 / trellis=2 / 8x8dct=1 / cqm=0 / deadzone=21,11 / fast_pskip=1 / chroma_qp_offset=-2 / threads=34 / lookahead_threads=5 / sliced_threads=0 / nr=0 / decimate=1 / interlaced=0 / bluray_compat=0 / constrained_intra=0 / bframes=8 / b_pyramid=2 / b_adapt=2 / b_bias=0 / direct=3 / weightb=1 / open_gop=0 / weightp=2 / keyint=240 / keyint_min=24 / scenecut=40 / intra_refresh=0 / rc_lookahead=60 / rc=crf / mbtree=1 / crf=20.0 / qcomp=0.60 / qpmin=0 / qpmax=69 / qpstep=4 / vbv_maxrate=62500 / vbv_bufsize=78125 / crf_max=0.0 / nal_hrd=none / filler=0 / ip_ratio=1.40 / aq=1:1.00
    Language                                 : English
    Default                                  : Yes
    Forced                                   : No
    Color range                              : Limited
    Color primaries                          : BT.709
    Transfer characteristics                 : BT.709
    Matrix coefficients                      : BT.709
    Statistics Tags Issue                    : mkvmerge v15.0.0 ('Duel with the Devil') 64-bit 2018-11-10 20:33:43 / mkvmerge v15.0.0 ('Duel with the Devil') 64-bit 2018-11-10 20:33:43 / UTC 2018-11-04T06:49:19Z
    FromStats_BitRate                        : 4702642
    FromStats_Duration                       : 00:56:03.068000000
    FromStats_FrameCount                     : 80633
    FromStats_StreamSize                     : 1976913260

    Audio #1
    ID                                       : 2
    Format                                   : DTS
    Format/Info                              : Digital Theater Systems
    Mode                                     : 16
    Format settings, Endianness              : Big
    Codec ID                                 : A_DTS
    Duration                                 : 56 min 3 s
    Bit rate mode                            : Constant
    Bit rate                                 : 768 kb/s
    Channel(s)                               : 2 channels
    Channel positions                        : Front: L R
    Sampling rate                            : 48.0 kHz
    Frame rate                               : 93.750 FPS (512 SPF)
    Bit depth                                : 24 bits
    Compression mode                         : Lossy
    Stream size                              : 308 MiB (11%)
    Language                                 : Spanish
    Default                                  : Yes
    Forced                                   : No
    Statistics Tags Issue                    : mkvmerge v15.0.0 ('Duel with the Devil') 64-bit 2018-11-10 20:33:43 / mkvmerge v15.0.0 ('Duel with the Devil') 64-bit 2018-11-10 20:33:43 / UTC 2018-11-04T06:49:19Z
    FromStats_BitRate                        : 768000
    FromStats_Duration                       : 00:56:03.104000000
    FromStats_FrameCount                     : 315291
    FromStats_StreamSize                     : 322857984

    Audio #2
    ID                                       : 3
    Format                                   : DTS
    Format/Info                              : Digital Theater Systems
    Mode                                     : 16
    Format settings, Endianness              : Big
    Codec ID                                 : A_DTS
    Duration                                 : 56 min 3 s
    Bit rate mode                            : Constant
    Bit rate                                 : 1 509 kb/s
    Channel(s)                               : 6 channels
    Channel positions                        : Front: L C R, Side: L R, LFE
    Sampling rate                            : 48.0 kHz
    Frame rate                               : 93.750 FPS (512 SPF)
    Bit depth                                : 24 bits
    Compression mode                         : Lossy
    Stream size                              : 605 MiB (22%)
    Language                                 : English
    Default                                  : No
    Forced                                   : No
    Statistics Tags Issue                    : mkvmerge v15.0.0 ('Duel with the Devil') 64-bit 2018-11-10 20:33:43 / mkvmerge v15.0.0 ('Duel with the Devil') 64-bit 2018-11-10 20:33:43 / UTC 2018-11-04T06:49:19Z
    FromStats_BitRate                        : 1508999
    FromStats_Duration                       : 00:56:03.062000000
    FromStats_FrameCount                     : 315287
    FromStats_StreamSize                     : 634357444

    Text #1
    ID                                       : 4
    Format                                   : PGS
    Muxing mode                              : zlib
    Codec ID                                 : S_HDMV/PGS
    Codec ID/Info                            : Picture based subtitle format used on BDs/HD-DVDs
    Language                                 : English
    Default                                  : No
    Forced                                   : No
    Statistics Tags Issue                    : mkvmerge v15.0.0 ('Duel with the Devil') 64-bit 2018-11-10 20:33:43 / mkvmerge v15.0.0 ('Duel with the Devil') 64-bit 2018-11-10 20:33:43 / UTC 2018-11-04T06:49:19Z
    FromStats_BitRate                        : 39468
    FromStats_Duration                       : 00:53:56.024000000
    FromStats_FrameCount                     : 1373
    FromStats_StreamSize                     : 15965024

    Text #2
    ID                                       : 5
    Format                                   : PGS
    Muxing mode                              : zlib
    Codec ID                                 : S_HDMV/PGS
    Codec ID/Info                            : Picture based subtitle format used on BDs/HD-DVDs
    Language                                 : Spanish
    Default                                  : No
    Forced                                   : No
    Statistics Tags Issue                    : mkvmerge v15.0.0 ('Duel with the Devil') 64-bit 2018-11-10 20:33:43 / mkvmerge v15.0.0 ('Duel with the Devil') 64-bit 2018-11-10 20:33:43 / UTC 2018-11-04T06:49:19Z
    FromStats_BitRate                        : 32229
    FromStats_Duration                       : 00:53:49.893000000
    FromStats_FrameCount                     : 1168
    FromStats_StreamSize                     : 13012334

    Menu
    00:00:00.000                             : :Chapter 1
    00:02:47.751                             : :Chapter 2
    00:13:42.030                             : :Chapter 3
    00:22:56.041                             : :Chapter 4
    00:32:17.185                             : :Chapter 5
    00:41:14.263                             : :Chapter 6
    00:47:53.162                             : :Chapter 7
    00:54:20.549                             : :Chapter 8

     

  • Peso: 2.00 A 5.00 GiB X Capitulo

Sinopsis

La historia de Mac Conway, un infante de marina que regresa a su hogar en Memphis desde Vietnam en 1972 y se encuentra rechazado por aquellos a quienes ama y demonizados por el público. Mientras lucha por hacer frente a sus experiencias en la guerra, Conway se ve envuelto en una red de asesinatos y corrupción que se extiende a lo largo del río Mississippi.

Ficha técnica

Video trailer de la película

Enlaces de descarga

Rip de Bluray

Descargar Quarry (2016) Primera Temporada Full 1080p Latino




Aportes de DPeliculasHDmega la pass es:dpeliculashdmega.org Aportes de CinemaniaHD la pass es:cinemaniahdd.com

Películas relacionadas

  • El Vacio (2018) Temporada 1 NF 1080p Latino

    2018
    El Vacio (2018) Temporada 1 NF 1080p Latino

    0.0 0h 25m 2018

    Tres adolescentes despiertan en un reino extraño lleno de portales mágicos, enigmas desconcertantes...

    Director: Vito Viscomi

    Género: Animación

    Actores: Mark Hildreth

  • Wolf Warrior 2 (2017) 1080p Latino

    2017
    Wolf Warrior 2 (2017) 1080p Latino

    0.0 2h 6m 2017

    Secuela de la película de acción exitosa "Wolf Warrior" (2015) La operación más peligrosa de las...

    Director: Wu Jing

    Género: Acción

    Actores: Yu Qian

Comentarios 0