James Bond: Quantum Of Solace (2008) REMUX 1080p Latino

21 vistas
1 estrella2 estrellas3 estrellas4 estrellas5 estrellas (Ninguna valoración todavía)
Cargando…

Información de James Bond: Quantum Of Solace (2008) REMUX 1080p Latino

Datos de la película

  • Calidad: Full 1080p
  • Audio: Español Latino AC3 5.1 BLURAY - Ingles DTS 5.1 BLURAY
  • Subtitulos: Español Latino PGS - Ingles PGS
  • Resolución: 1920x1080p
  • Formato: MKV
  • Codec: H.264
  • Encoder: CinefiloCool
  • Mediainfo: Clic para Mostrar Datos Ver
  • Quantum Of Solace (2008) REMUX 1080p Latino-CMHDD.mkv
    Format                      : Matroska
    Format version              : Version 4
    File size                   : 24.8 GiB
    Duration                    : 1 h 46 min
    Overall bit rate mode       : Variable
    Overall bit rate            : 33.5 Mb/s
    Movie name                  : Quantum Of Solace (2008) CinemaniaHDD.Net
    Encoded date                : UTC 2020-05-20 02:05:20
    Writing application         : mkvmerge v46.0.0 ('No Deeper Escape') 64-bit
    Writing library             : libebml v1.3.10 + libmatroska v1.5.2
    Attachments                 : CINEMANIAHD.png

    Video
    ID                          : 1
    Format                      : AVC
    Format/Info                 : Advanced Video Codec
    Format profile              : High@L4.1
    Format settings             : CABAC / 4 Ref Frames
    Format settings, CABAC      : Yes
    Format settings, Reference  : 4 frames
    Codec ID                    : V_MPEG4/ISO/AVC
    Duration                    : 1 h 46 min
    Bit rate mode               : Variable
    Bit rate                    : 28.9 Mb/s
    Maximum bit rate            : 36.0 Mb/s
    Width                       : 1 920 pixels
    Height                      : 1 080 pixels
    Display aspect ratio        : 16:9
    Frame rate mode             : Constant
    Frame rate                  : 23.976 (24000/1001) FPS
    Color space                 : YUV
    Chroma subsampling          : 4:2:0
    Bit depth                   : 8 bits
    Scan type                   : Progressive
    Bits/(Pixel*Frame)          : 0.582
    Stream size                 : 21.5 GiB (86%)
    Title                       : REMUX 1080p [CinemaniaHDD]
    Language                    : English
    Default                     : Yes
    Forced                      : No
    Color range                 : Limited
    Color primaries             : BT.709
    Transfer characteristics    : BT.709
    Matrix coefficients         : BT.709

    Audio #1
    ID                          : 2
    Format                      : AC-3
    Format/Info                 : Audio Coding 3
    Commercial name             : Dolby Digital
    Codec ID                    : A_AC3
    Duration                    : 1 h 46 min
    Bit rate mode               : Constant
    Bit rate                    : 448 kb/s
    Channel(s)                  : 6 channels
    Channel layout              : L R C LFE Ls Rs
    Sampling rate               : 48.0 kHz
    Frame rate                  : 31.250 FPS (1536 SPF)
    Compression mode            : Lossy
    Stream size                 : 340 MiB (1%)
    Title                       : Español Latino [CinemaniaHDD]
    Language                    : Spanish
    Service kind                : Complete Main
    Default                     : Yes
    Forced                      : No

    Audio #2
    ID                          : 3
    Format                      : DTS XLL
    Format/Info                 : Digital Theater Systems
    Commercial name             : DTS-HD Master Audio
    Codec ID                    : A_DTS
    Duration                    : 1 h 46 min
    Bit rate mode               : Variable
    Bit rate                    : 4 093 kb/s
    Channel(s)                  : 6 channels
    Channel layout              : C L R Ls Rs LFE
    Sampling rate               : 48.0 kHz
    Frame rate                  : 93.750 FPS (512 SPF)
    Bit depth                   : 24 bits
    Compression mode            : Lossless
    Stream size                 : 3.04 GiB (12%)
    Title                       : Ingles [CinemaniaHDD]
    Language                    : English
    Default                     : No
    Forced                      : No

    Text #1
    ID                          : 4
    Format                      : PGS
    Muxing mode                 : zlib
    Codec ID                    : S_HDMV/PGS
    Codec ID/Info               : Picture based subtitle format used on BDs/HD-DVDs
    Duration                    : 1 h 36 min
    Bit rate                    : 578 b/s
    Count of elements           : 42
    Stream size                 : 407 KiB (0%)
    Title                       : Forzados-PGS [CinemaniaHDD]
    Language                    : Spanish
    Default                     : Yes
    Forced                      : No

    Text #2
    ID                          : 5
    Format                      : PGS
    Muxing mode                 : zlib
    Codec ID                    : S_HDMV/PGS
    Codec ID/Info               : Picture based subtitle format used on BDs/HD-DVDs
    Duration                    : 1 h 39 min
    Bit rate                    : 27.3 kb/s
    Count of elements           : 1916
    Stream size                 : 19.4 MiB (0%)
    Title                       : Español-PGS [CinemaniaHDD]
    Language                    : Spanish
    Default                     : No
    Forced                      : No

    Text #3
    ID                          : 6
    Format                      : PGS
    Muxing mode                 : zlib
    Codec ID                    : S_HDMV/PGS
    Codec ID/Info               : Picture based subtitle format used on BDs/HD-DVDs
    Duration                    : 1 h 37 min
    Bit rate                    : 28.0 kb/s
    Count of elements           : 1866
    Stream size                 : 19.5 MiB (0%)
    Title                       : Ingles-PGS [CinemaniaHDD]
    Language                    : English
    Default                     : No
    Forced                      : No

    Text #4
    ID                          : 7
    Format                      : UTF-8
    Codec ID                    : S_TEXT/UTF8
    Codec ID/Info               : UTF-8 Plain Text
    Duration                    : 1 h 43 min
    Bit rate                    : 0 b/s
    Count of elements           : 27
    Stream size                 : 725 Bytes (0%)
    Title                       : Forzados-SRT [CinemaniaHDD]
    Language                    : Spanish
    Default                     : No
    Forced                      : No

    Text #5
    ID                          : 8
    Format                      : UTF-8
    Codec ID                    : S_TEXT/UTF8
    Codec ID/Info               : UTF-8 Plain Text
    Duration                    : 1 h 39 min
    Bit rate                    : 46 b/s
    Count of elements           : 943
    Stream size                 : 34.0 KiB (0%)
    Title                       : Español-SRT [CinemaniaHDD]
    Language                    : Spanish
    Default                     : No
    Forced                      : No

    Menu
    00:00:00.000                : en:Chapter 1
    00:04:10.125                : en:Chapter 2
    00:07:27.530                : en:Chapter 3
    00:10:20.537                : en:Chapter 4
    00:15:16.833                : en:Chapter 5
    00:17:47.650                : en:Chapter 6
    00:20:24.306                : en:Chapter 7
    00:22:51.370                : en:Chapter 8
    00:26:28.420                : en:Chapter 9
    00:29:06.370                : en:Chapter 10
    00:33:16.912                : en:Chapter 11
    00:35:48.104                : en:Chapter 12
    00:39:02.131                : en:Chapter 13
    00:44:19.156                : en:Chapter 14
    00:47:21.797                : en:Chapter 15
    00:52:30.898                : en:Chapter 16
    00:56:29.011                : en:Chapter 17
    01:01:17.173                : en:Chapter 18
    01:04:51.012                : en:Chapter 19
    01:11:04.802                : en:Chapter 20
    01:12:34.433                : en:Chapter 21
    01:17:16.423                : en:Chapter 22
    01:21:05.694                : en:Chapter 23
    01:24:17.719                : en:Chapter 24
    01:29:19.938                : en:Chapter 25
    01:36:15.520                : en:Chapter 26
    01:37:59.248                : en:Chapter 27
    01:41:39.135                : en:Chapter 28

  • Peso: 24.8 GiB

Sinopsis

Descargar James Bond: Quantum Of Solace (2008) REMUX 1080p Latino. Traicionado por Vesper, la mujer a la que amaba, 007 se plantea su nueva misión como algo personal. Durante su investigación, Bond y M interrogan a Mr. White, que les revela que la organización que chantajeó a Vesper es mucho más compleja y peligrosa de lo que imaginan. El servicio de inteligencia forense vincula a un traidor del Mi6 con una cuenta bancaria en Haití, donde Bond conoce a la bella pero combativa Camille, una mujer que tiene sus propios motivos para vengarse. Gracias a Camille, Bond descubre la existencia de Dominic Greene, despiadado hombre de negocios y miembro importante de la misteriosa organización.

Ficha técnica

Video trailer de la película

Enlaces de descarga

Rip de Bluray

Descargar James Bond: Quantum Of Solace (2008) REMUX 1080p Latino




Aportes de DPeliculasHDmega la pass es:dpeliculashdmega.org Aportes de CinemaniaHD la pass es:cinemaniahdd.com
Guardado en : Acción , Aventura , Crimen , Remux , Suspenso

Películas relacionadas

  • La Cacería (2020) HD 1080p Latino

    La Cacería (2020) HD 1080p Latino

    2020
    La Cacería (2020) HD 1080p Latino

    0.0 1h 55m 2020

    Descargar La Cacería (2020) HD 1080p Latino. La película sigue a 12 extraños que misteriosamente se...

    Director: Lars P. Winther

    Género: Acción

    Actores: Wayne Duvall

  • La Cacería (2020) PLACEBO Full HD 1080p Latino

    La Cacería (2020) PLACEBO Full HD 1080p Latino

    2020
    La Cacería (2020) PLACEBO Full HD 1080p Latino

    0.0 1h 55m 2020

    Descargar La Cacería (2020) PLACEBO Full HD 1080p Latino. La película sigue a 12 extraños que misteriosamente...

    Director: Lars P. Winther

    Género: Acción

    Actores: Wayne Duvall

  • La Cacería (2020) REMUX 1080p Latino

    La Cacería (2020) REMUX 1080p Latino

    2020
    La Cacería (2020) REMUX 1080p Latino

    0.0 1h 55m 2020

    Descargar La Cacería (2020) REMUX 1080p Latino. La película sigue a 12 extraños que misteriosamente...

    Director: Lars P. Winther

    Género: Acción

    Actores: Wayne Duvall

  • Batwoman (2019) Temporada 1 WEB-DL 1080p Latino

    Batwoman (2019) Temporada 1 WEB-DL 1080p Latino

    2019
    Batwoman (2019) Temporada 1 WEB-DL 1080p Latino

    4.3 0h 42m 2019

    Batwoman es una ficción que se centra en el personaje de Kate Kane, una mujer con pasión por la justicia...

    Director: Greg Berlanti

    Género: Action & Adventure

    Actores: Ruby Rose

Comentarios 0