James Bond: Quantum Of Solace (2008) 1080p Latino

17 vistas
1 estrella2 estrellas3 estrellas4 estrellas5 estrellas (Ninguna valoración todavía)
Cargando…

Información de James Bond: Quantum Of Solace (2008) 1080p Latino

Datos de la película

  • Calidad: 1080p
  • Audio: Español Latino AC3 5.1 BLURAY - Ingles AC3 5.1 BLURAY
  • Subtitulos: Español Latino SRT - Ingles SRT
  • Resolución: 1920x816p
  • Formato: MKV
  • Codec: H.264
  • Encoder: CinefiloCool
  • Mediainfo: Clic para Mostrar Datos Ver
  • Quantum Of Solace (2008) 1080p Latino-CMHDD.mkv
    Format                      : Matroska
    Format version              : Version 4
    File size                   : 4.38 GiB
    Duration                    : 1 h 46 min
    Overall bit rate            : 5 898 kb/s
    Movie name                  : Quantum Of Solace (2008) CinemaniaHDD.Net
    Encoded date                : UTC 2020-05-20 02:52:29
    Writing application         : mkvmerge v46.0.0 ('No Deeper Escape') 64-bit
    Writing library             : libebml v1.3.10 + libmatroska v1.5.2
    Attachments                 : CINEMANIAHD.png

    Video
    ID                          : 1
    Format                      : AVC
    Format/Info                 : Advanced Video Codec
    Format profile              : High@L4.1
    Format settings             : CABAC / 4 Ref Frames
    Format settings, CABAC      : Yes
    Format settings, Reference  : 4 frames
    Codec ID                    : V_MPEG4/ISO/AVC
    Duration                    : 1 h 46 min
    Bit rate                    : 5 000 kb/s
    Width                       : 1 920 pixels
    Height                      : 816 pixels
    Display aspect ratio        : 2.35:1
    Frame rate mode             : Constant
    Frame rate                  : 23.976 (24000/1001) FPS
    Color space                 : YUV
    Chroma subsampling          : 4:2:0
    Bit depth                   : 8 bits
    Scan type                   : Progressive
    Bits/(Pixel*Frame)          : 0.133
    Stream size                 : 3.71 GiB (85%)
    Title                       : HD1080p [CinemaniaHDD]
    Writing library             : x264 core 142 r2479 dd79a61
    Encoding settings           : cabac=1 / ref=3 / deblock=1:-1:-1 / analyse=0x3:0x113 / me=hex / subme=7 / psy=1 / psy_rd=1.00:0.15 / mixed_ref=1 / me_range=16 / chroma_me=1 / trellis=1 / 8x8dct=1 / cqm=0 / deadzone=21,11 / fast_pskip=1 / chroma_qp_offset=-3 / threads=12 / lookahead_threads=2 / sliced_threads=0 / nr=0 / decimate=1 / interlaced=0 / bluray_compat=0 / constrained_intra=0 / bframes=3 / b_pyramid=2 / b_adapt=1 / b_bias=0 / direct=1 / weightb=1 / open_gop=0 / weightp=2 / keyint=240 / keyint_min=24 / scenecut=40 / intra_refresh=0 / rc_lookahead=40 / rc=2pass / mbtree=1 / bitrate=5000 / ratetol=1.0 / qcomp=0.60 / qpmin=0 / qpmax=69 / qpstep=4 / cplxblur=20.0 / qblur=0.5 / vbv_maxrate=62500 / vbv_bufsize=78125 / nal_hrd=none / filler=0 / ip_ratio=1.40 / aq=1:1.00
    Default                     : Yes
    Forced                      : Yes
    Color range                 : Limited
    Color primaries             : BT.709
    Transfer characteristics    : BT.709
    Matrix coefficients         : BT.709

    Audio #1
    ID                          : 2
    Format                      : AC-3
    Format/Info                 : Audio Coding 3
    Commercial name             : Dolby Digital
    Codec ID                    : A_AC3
    Duration                    : 1 h 46 min
    Bit rate mode               : Constant
    Bit rate                    : 448 kb/s
    Channel(s)                  : 6 channels
    Channel layout              : L R C LFE Ls Rs
    Sampling rate               : 48.0 kHz
    Frame rate                  : 31.250 FPS (1536 SPF)
    Compression mode            : Lossy
    Delay relative to video     : -83 ms
    Stream size                 : 340 MiB (8%)
    Title                       : Español Latino [CinemaniaHDD]
    Language                    : Spanish
    Service kind                : Complete Main
    Default                     : Yes
    Forced                      : Yes

    Audio #2
    ID                          : 3
    Format                      : AC-3
    Format/Info                 : Audio Coding 3
    Commercial name             : Dolby Digital
    Codec ID                    : A_AC3
    Duration                    : 1 h 46 min
    Bit rate mode               : Constant
    Bit rate                    : 448 kb/s
    Channel(s)                  : 6 channels
    Channel layout              : L R C LFE Ls Rs
    Sampling rate               : 48.0 kHz
    Frame rate                  : 31.250 FPS (1536 SPF)
    Compression mode            : Lossy
    Delay relative to video     : -83 ms
    Stream size                 : 340 MiB (8%)
    Title                       : Ingles [CinemaniaHDD]
    Language                    : English
    Service kind                : Complete Main
    Default                     : No
    Forced                      : No

    Text #1
    ID                          : 4
    Format                      : UTF-8
    Codec ID                    : S_TEXT/UTF8
    Codec ID/Info               : UTF-8 Plain Text
    Duration                    : 1 h 43 min
    Bit rate                    : 0 b/s
    Count of elements           : 27
    Stream size                 : 725 Bytes (0%)
    Title                       : Forzados-SRT [CinemaniaHDD]
    Language                    : Spanish
    Default                     : Yes
    Forced                      : Yes

    Text #2
    ID                          : 5
    Format                      : UTF-8
    Codec ID                    : S_TEXT/UTF8
    Codec ID/Info               : UTF-8 Plain Text
    Duration                    : 1 h 39 min
    Bit rate                    : 46 b/s
    Count of elements           : 943
    Stream size                 : 34.0 KiB (0%)
    Title                       : Español-SRT [CinemaniaHDD]
    Language                    : Spanish
    Default                     : No
    Forced                      : No

    Text #3
    ID                          : 6
    Format                      : UTF-8
    Codec ID                    : S_TEXT/UTF8
    Codec ID/Info               : UTF-8 Plain Text
    Duration                    : 1 h 37 min
    Bit rate                    : 44 b/s
    Count of elements           : 933
    Stream size                 : 31.7 KiB (0%)
    Title                       : Ingles-SRT [CinemaniaHDD]
    Language                    : English
    Default                     : No
    Forced                      : No

    Menu
    00:00:00.000                : :Chapter 1
    00:04:10.125                : :Chapter 2
    00:07:27.530                : :Chapter 3
    00:10:20.537                : :Chapter 4
    00:15:16.833                : :Chapter 5
    00:17:47.650                : :Chapter 6
    00:20:24.306                : :Chapter 7
    00:22:51.370                : :Chapter 8
    00:26:28.420                : :Chapter 9
    00:29:06.370                : :Chapter 10
    00:33:16.912                : :Chapter 11
    00:35:48.104                : :Chapter 12
    00:39:02.131                : :Chapter 13
    00:44:19.157                : :Chapter 14
    00:47:21.797                : :Chapter 15
    00:52:30.898                : :Chapter 16
    00:56:29.011                : :Chapter 17
    01:01:17.174                : :Chapter 18
    01:04:51.012                : :Chapter 19
    01:11:04.802                : :Chapter 20
    01:12:34.433                : :Chapter 21
    01:17:16.423                : :Chapter 22
    01:21:05.694                : :Chapter 23
    01:24:17.719                : :Chapter 24
    01:29:19.938                : :Chapter 25
    01:36:15.520                : :Chapter 26
    01:37:59.248                : :Chapter 27
    01:41:39.135                : :Chapter 28

  • Peso: 4.38 GiB

Sinopsis

Descargar James Bond: Quantum Of Solace (2008) 1080p Latino. Traicionado por Vesper, la mujer a la que amaba, 007 se plantea su nueva misión como algo personal. Durante su investigación, Bond y M interrogan a Mr. White, que les revela que la organización que chantajeó a Vesper es mucho más compleja y peligrosa de lo que imaginan. El servicio de inteligencia forense vincula a un traidor del Mi6 con una cuenta bancaria en Haití, donde Bond conoce a la bella pero combativa Camille, una mujer que tiene sus propios motivos para vengarse. Gracias a Camille, Bond descubre la existencia de Dominic Greene, despiadado hombre de negocios y miembro importante de la misteriosa organización.

Ficha técnica

Video trailer de la película

Enlaces de descarga

Rip de Bluray

Descargar James Bond: Quantum Of Solace (2008) 1080p Latino




Aportes de DPeliculasHDmega la pass es:dpeliculashdmega.org Aportes de CinemaniaHD la pass es:cinemaniahdd.com
Guardado en : Acción , Aventura , Crimen , HD 1080p , Suspenso

Películas relacionadas

  • Female Fight Club: El Duelo Final (2016) HD 1080p Latino

    Female Fight Club: El Duelo Final (2016) HD 1080p Latino

    2017
    Female Fight Club: El Duelo Final (2016) HD 1080p Latino

    0.0 1h 30m 2017

    Descargar Female Fight Club: El Duelo Final (2016) HD 1080p Latino. Una ex-luchadora regresa a la vida...

    Director: Nicholas Paul Ybarra

    Género: Acción

    Actores: Tamiko Brownlee

  • El Niño (2016) 1080p Latino

    El Niño (2016) 1080p Latino

    2016
    El Niño (2016) 1080p Latino

    0.0 1h 37m 2016

    Descargar El Niño (2016) 1080p Latino. Greta (Lauren Cohan) es una joven americana que acepta trabajar...

    Director: William Brent Bell

    Género: HD 1080p

    Actores: Stephanie Lemelin

  • El Niño (2016) Full HD 1080p Latino

    El Niño (2016) Full HD 1080p Latino

    2016
    El Niño (2016) Full HD 1080p Latino

    0.0 1h 37m 2016

    Descargar El Niño (2016) Full HD 1080p Latino. Greta (Lauren Cohan) es una joven americana que acepta...

    Director: William Brent Bell

    Género: FULL 1080p Plateadas

    Actores: Stephanie Lemelin

Comentarios 0