James Bond: Quantum Of Solace (2008) Full HD 1080p Latino

1.570 vistas
1 estrella2 estrellas3 estrellas4 estrellas5 estrellas (5 votos, promedio: 2,60 de 5)
Cargando…

Información de James Bond: Quantum Of Solace (2008) Full HD 1080p Latino

Datos de la película

  • Calidad: Full 1080p
  • Audio: Español Latino AC3 5.1 BLURAY - Ingles DTS 5.1 BLURAY
  • Subtitulos: Español Latino PGS - Ingles PGS
  • Resolución: 1920x1080p
  • Formato: MKV
  • Codec: H.264
  • Encoder: Dracarys
  • Mediainfo: Clic para Mostrar Datos Ver
  • Quantum Of Solace (2008) Full HD 1080p Latino-CMHDD.mkv
    Format                      : Matroska
    Format version              : Version 4
    File size                   : 9.25 GiB
    Duration                    : 1 h 46 min
    Overall bit rate            : 12.5 Mb/s
    Movie name                  : Quantum Of Solace (2008) CinemaniaHDD.Net
    Encoded date                : UTC 2020-05-20 02:19:57
    Writing application         : mkvmerge v46.0.0 ('No Deeper Escape') 64-bit
    Writing library             : libebml v1.3.10 + libmatroska v1.5.2
    Attachments                 : CINEMANIAHD.png

    Video
    ID                          : 1
    Format                      : AVC
    Format/Info                 : Advanced Video Codec
    Format profile              : High@L4.1
    Format settings             : CABAC / 4 Ref Frames
    Format settings, CABAC      : Yes
    Format settings, Reference  : 4 frames
    Codec ID                    : V_MPEG4/ISO/AVC
    Duration                    : 1 h 46 min
    Bit rate                    : 10.5 Mb/s
    Width                       : 1 920 pixels
    Height                      : 1 080 pixels
    Display aspect ratio        : 16:9
    Frame rate mode             : Constant
    Frame rate                  : 23.976 (24000/1001) FPS
    Color space                 : YUV
    Chroma subsampling          : 4:2:0
    Bit depth                   : 8 bits
    Scan type                   : Progressive
    Bits/(Pixel*Frame)          : 0.211
    Stream size                 : 7.78 GiB (84%)
    Title                       : Full HD1080p [CinemaniaHDD]
    Writing library             : x264 core 148 r2708 86b7198
    Encoding settings           : cabac=1 / ref=4 / deblock=1:0:0 / analyse=0x3:0x133 / me=esa / subme=10 / psy=1 / psy_rd=1.00:0.00 / mixed_ref=1 / me_range=24 / chroma_me=1 / trellis=2 / 8x8dct=1 / cqm=0 / deadzone=21,11 / fast_pskip=1 / chroma_qp_offset=-2 / threads=34 / lookahead_threads=5 / sliced_threads=0 / nr=0 / decimate=1 / interlaced=0 / bluray_compat=0 / constrained_intra=0 / bframes=8 / b_pyramid=2 / b_adapt=2 / b_bias=0 / direct=3 / weightb=1 / open_gop=0 / weightp=2 / keyint=240 / keyint_min=24 / scenecut=40 / intra_refresh=0 / rc_lookahead=60 / rc=crf / mbtree=1 / crf=20.0 / qcomp=0.60 / qpmin=0 / qpmax=69 / qpstep=4 / vbv_maxrate=62500 / vbv_bufsize=78125 / crf_max=0.0 / nal_hrd=none / filler=0 / ip_ratio=1.40 / aq=1:1.00
    Language                    : English
    Default                     : Yes
    Forced                      : No
    Color range                 : Limited
    Color primaries             : BT.709
    Transfer characteristics    : BT.709
    Matrix coefficients         : BT.709

    Audio #1
    ID                          : 2
    Format                      : AC-3
    Format/Info                 : Audio Coding 3
    Commercial name             : Dolby Digital
    Codec ID                    : A_AC3
    Duration                    : 1 h 46 min
    Bit rate mode               : Constant
    Bit rate                    : 448 kb/s
    Channel(s)                  : 6 channels
    Channel layout              : L R C LFE Ls Rs
    Sampling rate               : 48.0 kHz
    Frame rate                  : 31.250 FPS (1536 SPF)
    Compression mode            : Lossy
    Stream size                 : 340 MiB (4%)
    Title                       : Español Latino [CinemaniaHDD]
    Language                    : Spanish
    Service kind                : Complete Main
    Default                     : Yes
    Forced                      : No

    Audio #2
    ID                          : 3
    Format                      : DTS
    Format/Info                 : Digital Theater Systems
    Codec ID                    : A_DTS
    Duration                    : 1 h 46 min
    Bit rate mode               : Constant
    Bit rate                    : 1 509 kb/s
    Channel(s)                  : 6 channels
    Channel layout              : C L R Ls Rs LFE
    Sampling rate               : 48.0 kHz
    Frame rate                  : 93.750 FPS (512 SPF)
    Bit depth                   : 24 bits
    Compression mode            : Lossy
    Stream size                 : 1.12 GiB (12%)
    Title                       : Ingles [CinemaniaHDD]
    Language                    : English
    Default                     : No
    Forced                      : No

    Text #1
    ID                          : 4
    Format                      : PGS
    Muxing mode                 : zlib
    Codec ID                    : S_HDMV/PGS
    Codec ID/Info               : Picture based subtitle format used on BDs/HD-DVDs
    Duration                    : 1 h 36 min
    Bit rate                    : 578 b/s
    Count of elements           : 42
    Stream size                 : 407 KiB (0%)
    Title                       : Forzados-PGS [CinemaniaHDD]
    Language                    : Spanish
    Default                     : Yes
    Forced                      : No

    Text #2
    ID                          : 5
    Format                      : PGS
    Muxing mode                 : zlib
    Codec ID                    : S_HDMV/PGS
    Codec ID/Info               : Picture based subtitle format used on BDs/HD-DVDs
    Duration                    : 1 h 39 min
    Bit rate                    : 27.3 kb/s
    Count of elements           : 1916
    Stream size                 : 19.4 MiB (0%)
    Title                       : Español-PGS [CinemaniaHDD]
    Language                    : Spanish
    Default                     : No
    Forced                      : No

    Text #3
    ID                          : 6
    Format                      : PGS
    Muxing mode                 : zlib
    Codec ID                    : S_HDMV/PGS
    Codec ID/Info               : Picture based subtitle format used on BDs/HD-DVDs
    Duration                    : 1 h 40 min
    Bit rate                    : 33.8 kb/s
    Count of elements           : 2377
    Stream size                 : 24.3 MiB (0%)
    Title                       : Ingles-PGS [CinemaniaHDD]
    Language                    : English
    Default                     : No
    Forced                      : No

    Text #4
    ID                          : 7
    Format                      : UTF-8
    Codec ID                    : S_TEXT/UTF8
    Codec ID/Info               : UTF-8 Plain Text
    Duration                    : 1 h 43 min
    Bit rate                    : 0 b/s
    Count of elements           : 27
    Stream size                 : 725 Bytes (0%)
    Title                       : Forzados-SRT [CinemaniaHDD]
    Language                    : Spanish
    Default                     : No
    Forced                      : No

    Text #5
    ID                          : 8
    Format                      : UTF-8
    Codec ID                    : S_TEXT/UTF8
    Codec ID/Info               : UTF-8 Plain Text
    Duration                    : 1 h 39 min
    Bit rate                    : 46 b/s
    Count of elements           : 943
    Stream size                 : 34.0 KiB (0%)
    Title                       : Español-SRT [CinemaniaHDD]
    Language                    : Spanish
    Default                     : No
    Forced                      : No

    Menu
    00:00:00.000                : :Chapter 1
    00:04:10.125                : :Chapter 2
    00:07:27.530                : :Chapter 3
    00:10:20.537                : :Chapter 4
    00:15:16.833                : :Chapter 5
    00:17:47.650                : :Chapter 6
    00:20:24.306                : :Chapter 7
    00:22:51.370                : :Chapter 8
    00:26:28.420                : :Chapter 9
    00:29:06.370                : :Chapter 10
    00:33:16.912                : :Chapter 11
    00:35:48.104                : :Chapter 12
    00:39:02.131                : :Chapter 13
    00:44:19.157                : :Chapter 14
    00:47:21.797                : :Chapter 15
    00:52:30.898                : :Chapter 16
    00:56:29.011                : :Chapter 17
    01:01:17.174                : :Chapter 18
    01:04:51.012                : :Chapter 19
    01:11:04.802                : :Chapter 20
    01:12:34.433                : :Chapter 21
    01:17:16.423                : :Chapter 22
    01:21:05.694                : :Chapter 23
    01:24:17.719                : :Chapter 24
    01:29:19.938                : :Chapter 25
    01:36:15.520                : :Chapter 26
    01:37:59.248                : :Chapter 27
    01:41:39.135                : :Chapter 28

  • Peso: 9.25 GiB

Sinopsis

Descargar James Bond: Quantum Of Solace (2008) Full HD 1080p Latino. Traicionado por Vesper, la mujer a la que amaba, 007 se plantea su nueva misión como algo personal. Durante su investigación, Bond y M interrogan a Mr. White, que les revela que la organización que chantajeó a Vesper es mucho más compleja y peligrosa de lo que imaginan. El servicio de inteligencia forense vincula a un traidor del Mi6 con una cuenta bancaria en Haití, donde Bond conoce a la bella pero combativa Camille, una mujer que tiene sus propios motivos para vengarse. Gracias a Camille, Bond descubre la existencia de Dominic Greene, despiadado hombre de negocios y miembro importante de la misteriosa organización.

RESUBIDO!

Ficha técnica

Video trailer de la película

Enlaces de descarga

Rip de Bluray

Descargar James Bond: Quantum Of Solace (2008) Full HD 1080p Latino




Aportes de DPeliculasHDmega la pass es:dpeliculashdmega.org Aportes de CinemaniaHD la pass es:cinemaniahdd.com

Películas relacionadas

  • Female Fight Club: El Duelo Final (2016) HD 1080p Latino

    Female Fight Club: El Duelo Final (2016) HD 1080p Latino

    2017
    Female Fight Club: El Duelo Final (2016) HD 1080p Latino

    0.0 1h 30m 2017

    Descargar Female Fight Club: El Duelo Final (2016) HD 1080p Latino. Una ex-luchadora regresa a la vida...

    Director: Nicholas Paul Ybarra

    Género: Acción

    Actores: Tamiko Brownlee

  • El Niño (2016) 1080p Latino

    El Niño (2016) 1080p Latino

    2016
    El Niño (2016) 1080p Latino

    0.0 1h 37m 2016

    Descargar El Niño (2016) 1080p Latino. Greta (Lauren Cohan) es una joven americana que acepta trabajar...

    Director: William Brent Bell

    Género: HD 1080p

    Actores: Stephanie Lemelin

  • El Niño (2016) Full HD 1080p Latino

    El Niño (2016) Full HD 1080p Latino

    2016
    El Niño (2016) Full HD 1080p Latino

    0.0 1h 37m 2016

    Descargar El Niño (2016) Full HD 1080p Latino. Greta (Lauren Cohan) es una joven americana que acepta...

    Director: William Brent Bell

    Género: FULL 1080p Plateadas

    Actores: Stephanie Lemelin

Comentarios 1
  • ocpgaiden - 01 septiembre, 2018

    gracias por 007 Quantum of solace, saludos