Puzzle (2018) Web-DL 1080p Latino

506 vistas
1 estrella2 estrellas3 estrellas4 estrellas5 estrellas (Ninguna valoración todavía)
Cargando…

Información de Puzzle (2018) Web-DL 1080p Latino

Datos de la película

  • Calidad: WEBDL
  • Audio: Español Latino AC3 2.0 Capturado - Ingles AC3 5.1 WEBDL
  • Subtitulos: Español Latino SRT
  • Resolución: 1912x796p
  • Formato: MKV
  • Codec: H.264
  • Encoder: FGT
  • Mediainfo: Clic para Mostrar Datos Ver
  • Puzzle (2018) WebDL 1080p Latino.mkv
    Format                      : Matroska
    Format version              : Version 4 / Version 2
    File size                   : 3.72 GiB
    Duration                    : 1 h 43 min
    Overall bit rate            : 5 161 kb/s
    Movie name                  : CinemaniaHDD.Net
    Encoded date                : UTC 2018-11-15 05:48:27
    Writing application         : mkvmerge v25.0.0 ('Prog Noir') 64-bit
    Writing library             : libebml v1.3.6 + libmatroska v1.4.9

    Video
    ID                          : 1
    Format                      : AVC
    Format/Info                 : Advanced Video Codec
    Format profile              : [email protected]
    Format settings             : CABAC / 5 Ref Frames
    Format settings, CABAC      : Yes
    Format settings, RefFrames  : 5 frames
    Codec ID                    : V_MPEG4/ISO/AVC
    Duration                    : 1 h 43 min
    Bit rate                    : 4 518 kb/s
    Width                       : 1 912 pixels
    Height                      : 796 pixels
    Display aspect ratio        : 2.40:1
    Frame rate mode             : Constant
    Frame rate                  : 23.976 (23976/1000) FPS
    Color space                 : YUV
    Chroma subsampling          : 4:2:0
    Bit depth                   : 8 bits
    Scan type                   : Progressive
    Bits/(Pixel*Frame)          : 0.124
    Stream size                 : 3.26 GiB (88%)
    Title                       : HD1080p [Web-DL]
    Language                    : English
    Default                     : Yes
    Forced                      : No
    Color range                 : Limited
    Color primaries             : BT.709
    Transfer characteristics    : BT.709
    Matrix coefficients         : BT.709

    Audio #1
    ID                          : 2
    Format                      : AC-3
    Format/Info                 : Audio Coding 3
    Format settings, Endianness : Big
    Codec ID                    : A_AC3
    Duration                    : 1 h 43 min
    Bit rate mode               : Constant
    Bit rate                    : 256 kb/s
    Channel(s)                  : 2 channels
    Channel positions           : Front: L R
    Sampling rate               : 48.0 kHz
    Frame rate                  : 31.250 FPS (1536 SPF)
    Bit depth                   : 16 bits
    Compression mode            : Lossy
    Delay relative to video     : -42 ms
    Stream size                 : 189 MiB (5%)
    Title                       : AC3_2.0_Web-DL_Esp
    Language                    : Spanish
    Service kind                : Complete Main
    Default                     : Yes
    Forced                      : No

    Audio #2
    ID                          : 3
    Format                      : AC-3
    Format/Info                 : Audio Coding 3
    Format settings, Endianness : Big
    Codec ID                    : A_AC3
    Duration                    : 1 h 43 min
    Bit rate mode               : Constant
    Bit rate                    : 384 kb/s
    Channel(s)                  : 6 channels
    Channel positions           : Front: L C R, Side: L R, LFE
    Sampling rate               : 48.0 kHz
    Frame rate                  : 31.250 FPS (1536 SPF)
    Bit depth                   : 16 bits
    Compression mode            : Lossy
    Delay relative to video     : -42 ms
    Stream size                 : 283 MiB (7%)
    Title                       : AC3_5.1_Web-DL_Eng
    Language                    : English
    Service kind                : Complete Main
    Default                     : No
    Forced                      : No

    Text
    ID                          : 4
    Format                      : UTF-8
    Codec ID                    : S_TEXT/UTF8
    Codec ID/Info               : UTF-8 Plain Text
    Duration                    : 1 h 36 min
    Bit rate                    : 47 b/s
    Count of elements           : 1113
    Stream size                 : 33.6 KiB (0%)
    Title                       : Sub_Esp
    Language                    : Spanish
    Default                     : No
    Forced                      : No

    Menu
    00:00:00.000                : en:1
    00:04:53.918                : en:2
    00:12:44.138                : en:3
    00:18:06.418                : en:4
    00:23:38.291                : en:5
    00:30:21.235                : en:6
    00:39:48.927                : en:7
    00:43:10.169                : en:8
    00:50:11.131                : en:9
    00:55:17.729                : en:10
    01:01:55.418                : en:11
    01:07:41.388                : en:12
    01:15:01.619                : en:13
    01:19:57.623                : en:14
    01:26:52.204                : en:15
    01:35:18.084                : en:16

  • Peso: 3.72 GiB

Sinopsis

Descargar Puzzle (2018) Web-DL 1080p Latino; Mega, Google Drive. Una mujer acude a Atlantic City para participar en un concurso de armar rompecabezas y allí conoce a un hombre que comparte con ella la pasión por este entretenimiento.

Ficha técnica

  • Titulo original: Puzzle
  • Fecha de lanzamiento: 27-07-2018 (United States of America)
  • Director: Marc Turtletaub
  • Género: Drama
  • Puntuación: 0.0 0 votos
  • Duración:
    1h 43m

Video trailer de la película

Enlaces de descarga

Rip de Bluray

Descargar Puzzle (2018) Web-DL 1080p Latino




Aportes de DPeliculasHDmega la pass es:dpeliculashdmega.org Aportes de CinemaniaHD la pass es:cinemaniahdd.com
Guardado en : Drama

Películas relacionadas

  • The mule (2018) WEB-DL 1080p Latino

    2018
    The mule (2018) WEB-DL 1080p Latino

    0.0 1h 56m 2018

    A Earl Stone (Eastwood), un octogenario que está en quiebra, solo, y que se enfrenta a la ejecución...

    Director: Clint Eastwood

    Género: Crimen

    Actores: Victor Rasuk

  • Nace Una Estrella (2018) 4K UHD HDR Latino

    2018
    Nace Una Estrella (2018) 4K UHD HDR Latino

    0.0 2h 25m 2018

    Descargar Nace Una Estrella (2018) 4K UHD HDR Latino, Mega, Google Drive. Jackson Maine es una estrella...

    Director: Bradley Cooper

    Género: 4K HDR

    Actores: Willam Belli

  • FBI (2018) Temporada 1 1080p WEB-DL Latino

    2018
    FBI (2018) Temporada 1 1080p WEB-DL Latino

    0.0 0h 43m 2018

    Serie de TV (2018-). Drama vertiginoso sobre el funcionamiento interno de la oficina de Nueva York del...

    Director: Dick Wolf

    Género: Crimen

    Actores: Zeeko Zaki

  • Turn Up Charlie (2019) Temporada 1 NF 1080p Latino

    2019
    Turn Up Charlie (2019) Temporada 1 NF 1080p Latino

    0.0 0h 25m 2019

    Un DJ de mala racha planea reconstruir su carrera musical mientras trabaja como niñera para la salvaje...

    Director: Idris Elba

    Género: Comedia

    Actores: Piper Perabo

Comentarios 0