×

¿Problemas para descargar con Mozilla, EDGE? Deshabilita la opción "Abrir vinculos en una pestaña nueva" tal como lo muestra ésta imagen.

El Gato Con Botas (2011) REMUX 1080p Latino

27 vistas

Información de El Gato Con Botas (2011) REMUX 1080p Latino

Datos de la película

  • Calidad: Full 1080p
  • Audio: Se especifica abajo de la Sinopsis
  • Subtitulos: Español Latino PGS - Ingles PGS
  • Resolución: 1920x1080p
  • Formato: MKV
  • Codec: H.264
  • Encoder: CinefiloCool
  • Mediainfo: Clic para Mostrar Datos Ver
  • El Gato Con Botas (2011) REMUX 1080p Latino-CMHDD.mkv
    Format                      : Matroska
    Format version              : Version 4
    File size                   : 20.4 GiB
    Duration                    : 1 h 30 min
    Overall bit rate mode       : Variable
    Overall bit rate            : 32.3 Mb/s
    Movie name                  : Puss in Boots (2011) CinemaniaHDD.Net
    Encoded date                : UTC 2023-01-06 06:21:29
    Writing application         : mkvmerge v56.1.0 ('My Friend') 64-bit
    Writing library             : libebml v1.4.2 + libmatroska v1.6.4
    Attachments                 : CINEMANIAHD.png

    Video
    ID                          : 1
    Format                      : AVC
    Format/Info                 : Advanced Video Codec
    Format profile              : High@L4.1
    Format settings             : CABAC / 4 Ref Frames
    Format settings, CABAC      : Yes
    Format settings, Reference  : 4 frames
    Codec ID                    : V_MPEG4/ISO/AVC
    Duration                    : 1 h 30 min
    Bit rate mode               : Variable
    Bit rate                    : 26.8 Mb/s
    Maximum bit rate            : 30.0 Mb/s
    Width                       : 1 920 pixels
    Height                      : 1 080 pixels
    Display aspect ratio        : 16:9
    Frame rate mode             : Constant
    Frame rate                  : 23.976 (24000/1001) FPS
    Color space                 : YUV
    Chroma subsampling          : 4:2:0
    Bit depth                   : 8 bits
    Scan type                   : Progressive
    Bits/(Pixel*Frame)          : 0.540
    Stream size                 : 16.9 GiB (83%)
    Title                       : REMUX HD1080p [CinemaniaHDD]
    Default                     : Yes
    Forced                      : Yes

    Audio #1
    ID                          : 2
    Format                      : DTS
    Format/Info                 : Digital Theater Systems
    Codec ID                    : A_DTS
    Duration                    : 1 h 30 min
    Bit rate mode               : Constant
    Bit rate                    : 768 kb/s
    Channel(s)                  : 6 channels
    Channel layout              : C L R Ls Rs LFE
    Sampling rate               : 48.0 kHz
    Frame rate                  : 93.750 FPS (512 SPF)
    Bit depth                   : 16 bits
    Compression mode            : Lossy
    Stream size                 : 496 MiB (2%)
    Title                       : Español Latino [CinemaniaHDD]
    Language                    : Spanish
    Default                     : Yes
    Forced                      : Yes

    Audio #2
    ID                          : 3
    Format                      : MLP FBA
    Format/Info                 : Meridian Lossless Packing FBA
    Commercial name             : Dolby TrueHD
    Codec ID                    : A_TRUEHD
    Duration                    : 1 h 30 min
    Bit rate mode               : Variable
    Bit rate                    : 3 984 kb/s
    Maximum bit rate            : 6 129 kb/s
    Channel(s)                  : 8 channels
    Channel layout              : L R C LFE Ls Rs Lb Rb
    Sampling rate               : 48.0 kHz
    Frame rate                  : 1 200.000 FPS (40 SPF)
    Compression mode            : Lossless
    Stream size                 : 2.51 GiB (12%)
    Title                       : Ingles [CinemaniaHDD]
    Language                    : English
    Default                     : No
    Forced                      : No

    Audio #3
    ID                          : 4
    Format                      : AC-3
    Format/Info                 : Audio Coding 3
    Commercial name             : Dolby Digital
    Codec ID                    : A_AC3
    Duration                    : 1 h 30 min
    Bit rate mode               : Constant
    Bit rate                    : 640 kb/s
    Channel(s)                  : 6 channels
    Channel layout              : L R C LFE Ls Rs
    Sampling rate               : 48.0 kHz
    Frame rate                  : 31.250 FPS (1536 SPF)
    Compression mode            : Lossy
    Stream size                 : 413 MiB (2%)
    Title                       : Ingles AC3 [CinemaniaHDD]
    Language                    : English
    Service kind                : Complete Main
    Default                     : No
    Forced                      : No

    Text #1
    ID                          : 5
    Format                      : PGS
    Muxing mode                 : zlib
    Codec ID                    : S_HDMV/PGS
    Codec ID/Info               : Picture based subtitle format used on BDs/HD-DVDs
    Duration                    : 1 h 27 min
    Bit rate                    : 138 b/s
    Count of elements           : 10
    Stream size                 : 88.3 KiB (0%)
    Title                       : Forzados-PGS [CinemaniaHDD]
    Language                    : Spanish
    Default                     : No
    Forced                      : No

    Text #2
    ID                          : 6
    Format                      : PGS
    Muxing mode                 : zlib
    Codec ID                    : S_HDMV/PGS
    Codec ID/Info               : Picture based subtitle format used on BDs/HD-DVDs
    Duration                    : 1 h 19 min
    Bit rate                    : 37.3 kb/s
    Count of elements           : 1710
    Stream size                 : 21.1 MiB (0%)
    Title                       : Español-PGS [CinemaniaHDD]
    Language                    : Spanish
    Default                     : No
    Forced                      : No

    Text #3
    ID                          : 7
    Format                      : PGS
    Muxing mode                 : zlib
    Codec ID                    : S_HDMV/PGS
    Codec ID/Info               : Picture based subtitle format used on BDs/HD-DVDs
    Duration                    : 1 h 29 min
    Bit rate                    : 34.9 kb/s
    Count of elements           : 1774
    Stream size                 : 22.4 MiB (0%)
    Title                       : Ingles-PGS [CinemaniaHDD]
    Language                    : English
    Default                     : No
    Forced                      : No

    Text #4
    ID                          : 8
    Format                      : UTF-8
    Codec ID                    : S_TEXT/UTF8
    Codec ID/Info               : UTF-8 Plain Text
    Duration                    : 1 h 18 min
    Bit rate                    : 0 b/s
    Count of elements           : 10
    Stream size                 : 186 Bytes (0%)
    Title                       : Forzados-SRT [CinemaniaHDD]
    Language                    : Spanish
    Default                     : Yes
    Forced                      : Yes

    Text #5
    ID                          : 9
    Format                      : UTF-8
    Codec ID                    : S_TEXT/UTF8
    Codec ID/Info               : UTF-8 Plain Text
    Duration                    : 1 h 19 min
    Bit rate                    : 45 b/s
    Count of elements           : 863
    Stream size                 : 26.2 KiB (0%)
    Title                       : Español-SRT [CinemaniaHDD]
    Language                    : Spanish
    Default                     : No
    Forced                      : No

    Menu
    00:00:00.000                : Stealing "Magic Beans"
    00:03:23.033                : Planting "Magic BEans"
    00:07:17.700                : The Giant's Castle
    00:11:44.167                : Goldern Goose
    00:15:50.501                : Happy Movement
    00:19:20.369                : Telling the Revenge
    00:25:54.836                : Puss in Prison
    00:29:18.670                : Saving "San Ricardo"
    00:34:02.504                : Opening Credits & Intro
    00:39:13.171                : Puss in BAR
    00:44:07.371                : Jack & Jill
    00:49:29.172                : Dance Fight
    00:54:00.706                : Kitty Softpaws Intro
    00:57:33.173                : Story Behind Past
    01:03:00.206                : Brothers Forever
    01:08:08.673                : No Stealing Anymore
    01:16:45.173                : He's no Outlaw...He's Hero
    01:19:35.373                : Glitter Box & End Credits

  • Peso: 20.4 GiB

Sinopsis

Descargar El Gato Con Botas (2011) REMUX 1080p Latino. Mucho antes de que conociera a Shrek, el conocido espadachín, amante y fuera de la ley Gato con Botas se convierte en un héroe al emprender una aventura junto a la dura y espabilada Kitty Zarpassuaves y el astuto Humpty Dumpty para salvar a su pueblo. Complicándoles las cosas por el camino están los infames forajidos Jack y Jill, que harán cualquier cosa para que Gato y su banda no lo consigan.

Español Latino DTS 5.1 Bluray – Ingles TrueHD 7.1 + AC3 5.1 Bluray

Ficha técnica

Video trailer de la película

Enlaces de descarga

Rip de Bluray

Descargar El Gato Con Botas (2011) REMUX 1080p Latino


Aportes de DPeliculasHDmega la pass es:dpeliculashdmega.org Aportes de CinemaniaHD la pass es:cinemaniahdd.com
Guardado en : Acción , Animación , Aventura , Comedia , Familia , Remux

Películas relacionadas

descargar El Gato Con Botas (2011) REMUX 1080p Latino Full 1080p 1080p gratis, El Gato Con Botas (2011) REMUX 1080p Latino Full 1080p mega 1 link, El Gato Con Botas (2011) REMUX 1080p Latino Full 1080p pelicula completa, descargar El Gato Con Botas (2011) REMUX 1080p Latino Full 1080p gratis en mega.

El Gato Con Botas (2011) REMUX 1080p Latino pelicula full hd, El Gato Con Botas (2011) REMUX 1080p Latino mega latino, El Gato Con Botas (2011) REMUX 1080p Latino 4k latino, El Gato Con Botas (2011) REMUX 1080p Latino pelicula completa, El Gato Con Botas (2011) REMUX 1080p Latino descargar gratis, descargar El Gato Con Botas (2011) REMUX 1080p Latino pelicula latino, El Gato Con Botas (2011) REMUX 1080p Latino 1 link mega, El Gato Con Botas (2011) REMUX 1080p Latino 1 link google drive, El Gato Con Botas (2011) REMUX 1080p Latino hd 1080p latino.
Comentarios 0