Punto Ciego (2018) 1080p Latino

1.584 vistas
1 estrella2 estrellas3 estrellas4 estrellas5 estrellas (1 votos, promedio: 1,00 de 5)
Cargando…

Información de Punto Ciego (2018) 1080p Latino

Datos de la película

  • Calidad: 1080p
  • Audio: Español Latino AC3 5.1 DVD - Ingles AC3 5.1 BLURAY
  • Subtitulos: Español Latino SRT - Ingles SRT
  • Resolución: 1920x1040p
  • Formato: MKV
  • Codec: H.264
  • Encoder: CinefiloCool
  • Mediainfo: Clic para Mostrar Datos Ver
  • Punto Ciego (2018) 1080p Latino.mkv
    Format                      : Matroska
    Format version              : Version 4 / Version 2
    File size                   : 2.91 GiB
    Duration                    : 1 h 35 min
    Overall bit rate            : 4 369 kb/s
    Movie name                  : CinemaniaHDD.Net
    Encoded date                : UTC 2018-11-11 23:06:37
    Writing application         : mkvmerge v25.0.0 ('Prog Noir') 64-bit
    Writing library             : libebml v1.3.6 + libmatroska v1.4.9

    Video
    ID                          : 1
    Format                      : AVC
    Format/Info                 : Advanced Video Codec
    Format profile              : [email protected]
    Format settings             : CABAC / 4 Ref Frames
    Format settings, CABAC      : Yes
    Format settings, RefFrames  : 4 frames
    Codec ID                    : V_MPEG4/ISO/AVC
    Duration                    : 1 h 35 min
    Bit rate                    : 3 500 kb/s
    Width                       : 1 920 pixels
    Height                      : 1 040 pixels
    Display aspect ratio        : 1.85:1
    Frame rate mode             : Constant
    Frame rate                  : 23.976 (24000/1001) FPS
    Color space                 : YUV
    Chroma subsampling          : 4:2:0
    Bit depth                   : 8 bits
    Scan type                   : Progressive
    Bits/(Pixel*Frame)          : 0.073
    Stream size                 : 2.31 GiB (79%)
    Title                       : HD1080p [Bluray]
    Writing library             : x264 core 155 r2893 b00bcaf
    Encoding settings           : cabac=1 / ref=4 / deblock=1:0:0 / analyse=0x3:0x113 / me=hex / subme=8 / psy=1 / psy_rd=1.00:0.00 / mixed_ref=1 / me_range=16 / chroma_me=1 / trellis=2 / 8x8dct=1 / cqm=0 / deadzone=21,11 / fast_pskip=1 / chroma_qp_offset=-2 / threads=32 / lookahead_threads=5 / sliced_threads=0 / nr=0 / decimate=1 / interlaced=0 / bluray_compat=0 / constrained_intra=0 / bframes=3 / b_pyramid=2 / b_adapt=1 / b_bias=0 / direct=3 / weightb=1 / open_gop=0 / weightp=2 / keyint=240 / keyint_min=24 / scenecut=40 / intra_refresh=0 / rc_lookahead=50 / rc=abr / mbtree=1 / bitrate=3500 / ratetol=1.0 / qcomp=0.60 / qpmin=0 / qpmax=69 / qpstep=4 / vbv_maxrate=62500 / vbv_bufsize=78125 / nal_hrd=none / filler=0 / ip_ratio=1.40 / aq=1:1.00
    Default                     : Yes
    Forced                      : No
    Color range                 : Limited
    Color primaries             : BT.709
    Transfer characteristics    : BT.709
    Matrix coefficients         : BT.709

    Audio #1
    ID                          : 2
    Format                      : AC-3
    Format/Info                 : Audio Coding 3
    Format settings, Endianness : Big
    Codec ID                    : A_AC3
    Duration                    : 1 h 35 min
    Bit rate mode               : Constant
    Bit rate                    : 448 kb/s
    Channel(s)                  : 6 channels
    Channel positions           : Front: L C R, Side: L R, LFE
    Sampling rate               : 48.0 kHz
    Frame rate                  : 31.250 FPS (1536 SPF)
    Bit depth                   : 16 bits
    Compression mode            : Lossy
    Delay relative to video     : -5 ms
    Stream size                 : 306 MiB (10%)
    Title                       : AC3_5.1_DVD_Esp
    Language                    : Spanish
    Service kind                : Complete Main
    Default                     : Yes
    Forced                      : Yes

    Audio #2
    ID                          : 3
    Format                      : AC-3
    Format/Info                 : Audio Coding 3
    Format settings, Endianness : Big
    Codec ID                    : A_AC3
    Duration                    : 1 h 35 min
    Bit rate mode               : Constant
    Bit rate                    : 448 kb/s
    Channel(s)                  : 6 channels
    Channel positions           : Front: L C R, Side: L R, LFE
    Sampling rate               : 48.0 kHz
    Frame rate                  : 31.250 FPS (1536 SPF)
    Bit depth                   : 16 bits
    Compression mode            : Lossy
    Stream size                 : 306 MiB (10%)
    Title                       : AC3_5.1_Bluray_Eng
    Language                    : English
    Service kind                : Complete Main
    Default                     : No
    Forced                      : No

    Text #1
    ID                          : 4
    Format                      : UTF-8
    Codec ID                    : S_TEXT/UTF8
    Codec ID/Info               : UTF-8 Plain Text
    Duration                    : 1 h 31 min
    Bit rate                    : 67 b/s
    Count of elements           : 1288
    Stream size                 : 45.4 KiB (0%)
    Title                       : Sub_Esp
    Language                    : Spanish
    Default                     : Yes
    Forced                      : No

    Text #2
    ID                          : 5
    Format                      : UTF-8
    Codec ID                    : S_TEXT/UTF8
    Codec ID/Info               : UTF-8 Plain Text
    Duration                    : 1 h 29 min
    Bit rate                    : 78 b/s
    Count of elements           : 1412
    Stream size                 : 51.9 KiB (0%)
    Title                       : Sub_Eng
    Language                    : English
    Default                     : No
    Forced                      : No

    Menu
    00:00:00.000                : :00:00:00.000
    00:06:32.601                : :00:06:32.601
    00:11:50.627                : :00:11:50.627
    00:18:19.265                : :00:18:19.265
    00:24:39.269                : :00:24:39.269
    00:32:56.600                : :00:32:56.600
    00:37:39.758                : :00:37:39.757
    00:44:27.999                : :00:44:27.999
    00:47:27.136                : :00:47:27.136
    00:54:26.555                : :00:54:26.555
    01:00:20.534                : :01:00:20.534
    01:06:50.632                : :01:06:50.632
    01:12:46.863                : :01:12:46.862
    01:16:54.693                : :01:16:54.610
    01:21:07.363                : :01:21:07.362
    01:28:48.573                : :01:28:48.573

  • Peso: 2.91 GiB

Sinopsis

Descargar Punto Ciego (2018) 1080p Latino, Mega, google Drive. Collin está en los últimos días de libertad condicional. Siempre a su lado está su mejor amigo, Miles, que tiene un don para buscar problemas. Cuando la oportunidad de Collin de empezar de cero se ve interrumpida por un toque de queda que pierde, su amistad con Miles será puesta a prueba.

Ficha técnica

Video trailer de la película

Enlaces de descarga

Rip de Bluray

Descargar Punto Ciego (2018) 1080p Latino




Aportes de DPeliculasHDmega la pass es:dpeliculashdmega.org Aportes de CinemaniaHD la pass es:cinemaniahdd.com
Guardado en : Comedia , Crimen , Drama , HD 1080p

Películas relacionadas

  • Yucatán (2018) NF WEB-DL 1080p Castellano

    2018
    Yucatán (2018) NF WEB-DL 1080p Castellano

    0.0 2h 10m 2018

    Lucas (Luis Tosar) y Clayderman (Rodrigo de la Serna) son dos estafadores que se dedican a timar a turistas...

    Director: Daniel Monzón

    Género: Castellano

    Actores: Xavier Lite

  • El Vacio (2018) Temporada 1 NF 1080p Latino

    2018
    El Vacio (2018) Temporada 1 NF 1080p Latino

    0.0 0h 25m 2018

    Tres adolescentes despiertan en un reino extraño lleno de portales mágicos, enigmas desconcertantes...

    Director: Vito Viscomi

    Género: Animación

    Actores: Mark Hildreth

  • Wolf Warrior 2 (2017) 1080p Latino

    2017
    Wolf Warrior 2 (2017) 1080p Latino

    0.0 2h 6m 2017

    Secuela de la película de acción exitosa "Wolf Warrior" (2015) La operación más peligrosa de las...

    Director: Wu Jing

    Género: Acción

    Actores: Yu Qian

  • The Front Runner (2018) Full 1080p Latino

    2018
    The Front Runner (2018) Full 1080p Latino

    0.0 1h 53m 2018

    Narra la campaña presidencial del senador estadounidense Gary Hart, que tuvo lugar en 1988, momento...

    Director: Jason Reitman

    Género: Drama

    Actores: William Walker

Comentarios 0