×

¿Problemas para descargar con Mozilla, EDGE? Deshabilita la opción "Abrir vinculos en una pestaña nueva" tal como lo muestra ésta imagen.

Embriagado de amor (2002) REMUX 1080p Latino-CMHDD

34 vistas

Información de Embriagado de amor (2002) REMUX 1080p Latino-CMHDD

Datos de la película

  • Calidad: Full 1080p
  • Audio: Español Latino AC3 5.1 BLURAY - Ingles DTS 5.1 BLURAY
  • Subtitulos: Español Latino PGS - Ingles PGS
  • Resolución: 1920x1080p
  • Formato: MKV
  • Codec: H.264
  • Encoder: CinefiloCool
  • Mediainfo: Clic para Mostrar Datos Ver
  • Punch-Drunk.Love.2002.Bluray.REMUX.1080p.Remastered.AVC.Latino-CC@CMHDD.mkv
    Format                      : Matroska
    Format version              : Version 4
    File size                   : 22.4 GiB
    Duration                    : 1 h 35 min
    Overall bit rate mode       : Variable
    Overall bit rate            : 33.7 Mb/s
    Movie name                  : Punch-Drunk Love (2002) CinemaniaHDD.Net
    Encoded date                : UTC 2024-03-10 06:57:14
    Writing application         : mkvmerge v56.1.0 ('My Friend') 64-bit
    Writing library             : libebml v1.4.2 + libmatroska v1.6.4
    Cover                       : Yes
    Attachments                 : cover.jpg / CINEMANIAHD.png

    Video
    ID                          : 1
    ID in the original source m : 4113 (0x1011)
    Format                      : AVC
    Format/Info                 : Advanced Video Codec
    Format profile              : High@L4.1
    Format settings             : CABAC / 2 Ref Frames
    Format settings, CABAC      : Yes
    Format settings, Reference  : 2 frames
    Format settings, GOP        : M=1, N=10
    Codec ID                    : V_MPEG4/ISO/AVC
    Duration                    : 1 h 35 min
    Bit rate mode               : Variable
    Bit rate                    : 30.9 Mb/s
    Width                       : 1 920 pixels
    Height                      : 1 080 pixels
    Display aspect ratio        : 16:9
    Frame rate mode             : Constant
    Frame rate                  : 23.976 (24000/1001) FPS
    Color space                 : YUV
    Chroma subsampling          : 4:2:0
    Bit depth                   : 8 bits
    Scan type                   : Progressive
    Bits/(Pixel*Frame)          : 0.622
    Stream size                 : 20.5 GiB (92%)
    Title                       : REMUX HD1080p [CinemaniaHDD]
    Default                     : Yes
    Forced                      : Yes
    Original source medium      : Blu-ray

    Audio #1
    ID                          : 2
    ID in the original source m : 4357 (0x1105)
    Format                      : AC-3
    Format/Info                 : Audio Coding 3
    Commercial name             : Dolby Digital
    Codec ID                    : A_AC3
    Duration                    : 1 h 35 min
    Bit rate mode               : Constant
    Bit rate                    : 640 kb/s
    Channel(s)                  : 6 channels
    Channel layout              : L R C LFE Ls Rs
    Sampling rate               : 48.0 kHz
    Frame rate                  : 31.250 FPS (1536 SPF)
    Compression mode            : Lossy
    Stream size                 : 435 MiB (2%)
    Title                       : Español Latino [CinemaniaHDD]
    Language                    : Spanish
    Service kind                : Complete Main
    Default                     : Yes
    Forced                      : Yes
    Original source medium      : Blu-ray

    Audio #2
    ID                          : 3
    ID in the original source m : 4352 (0x1100)
    Format                      : DTS XLL
    Format/Info                 : Digital Theater Systems
    Commercial name             : DTS-HD Master Audio
    Codec ID                    : A_DTS
    Duration                    : 1 h 35 min
    Bit rate mode               : Variable
    Bit rate                    : 2 159 kb/s
    Channel(s)                  : 6 channels
    Channel layout              : C L R Ls Rs LFE
    Sampling rate               : 48.0 kHz
    Frame rate                  : 93.750 FPS (512 SPF)
    Bit depth                   : 16 bits
    Compression mode            : Lossless
    Stream size                 : 1.43 GiB (6%)
    Title                       : Ingles [CinemaniaHDD]
    Language                    : English
    Default                     : No
    Forced                      : No
    Original source medium      : Blu-ray

    Text #1
    ID                          : 4
    ID in the original source m : 4624 (0x1210)
    Format                      : PGS
    Muxing mode                 : zlib
    Codec ID                    : S_HDMV/PGS
    Codec ID/Info               : Picture based subtitle format used on BDs/HD-DVDs
    Duration                    : 1 h 32 min
    Bit rate                    : 30.8 kb/s
    Count of elements           : 1962
    Stream size                 : 20.4 MiB (0%)
    Title                       : Español-PGS [CinemaniaHDD]
    Language                    : Spanish
    Default                     : No
    Forced                      : No
    Original source medium      : Blu-ray

    Text #2
    ID                          : 5
    ID in the original source m : 4608 (0x1200)
    Format                      : PGS
    Muxing mode                 : zlib
    Codec ID                    : S_HDMV/PGS
    Codec ID/Info               : Picture based subtitle format used on BDs/HD-DVDs
    Duration                    : 1 h 34 min
    Bit rate                    : 41.7 kb/s
    Count of elements           : 2817
    Stream size                 : 28.1 MiB (0%)
    Title                       : Ingles [CinemaniaHDD]
    Language                    : English
    Default                     : No
    Forced                      : No
    Original source medium      : Blu-ray

    Text #3
    ID                          : 6
    Format                      : UTF-8
    Codec ID                    : S_TEXT/UTF8
    Codec ID/Info               : UTF-8 Plain Text
    Duration                    : 1 h 6 min
    Bit rate                    : 0 b/s
    Count of elements           : 3
    Stream size                 : 76.0 Bytes (0%)
    Title                       : Forzados-SRT [CinemaniaHDD]
    Language                    : Spanish
    Default                     : Yes
    Forced                      : Yes

    Text #4
    ID                          : 7
    Format                      : UTF-8
    Codec ID                    : S_TEXT/UTF8
    Codec ID/Info               : UTF-8 Plain Text
    Duration                    : 1 h 32 min
    Bit rate                    : 50 b/s
    Count of elements           : 966
    Stream size                 : 34.0 KiB (0%)
    Title                       : Español-SRT [CinemaniaHDD]
    Language                    : Spanish
    Default                     : No
    Forced                      : No

    Menu
    00:00:00.000                : Chapter 01
    00:07:30.032                : Chapter 02
    00:15:41.857                : Chapter 03
    00:22:05.824                : Chapter 04
    00:29:21.384                : Chapter 05
    00:41:39.788                : Chapter 06
    00:43:13.048                : Chapter 07
    00:48:50.344                : Chapter 08
    00:54:53.581                : Chapter 09
    00:57:25.608                : Chapter 10
    01:00:48.353                : Chapter 11
    01:07:12.570                : Chapter 12
    01:11:10.849                : Chapter 13
    01:15:52.839                : Chapter 14
    01:20:43.880                : Chapter 15
    01:23:56.281                : Chapter 16

  • Peso: 22.4 GiB

Sinopsis

Descargar Embriagado de amor (2002) REMUX 1080p Latino-CMHDD. Barry (Adam Sandler) es un tipo solitario y poco sociable que fue educado entre siete hermanas. La sobreprotección que se le dispensó desde niño le ha impedido enamorarse. Un día descubre un fallo en un concurso y gana miles de millas en billetes de avión. Viajando, conoce a una misteriosa mujer (Emily Watson) con la que inicia una romántica aventura.

Ficha técnica

Video trailer de la película

Enlaces de descarga

Rip de Bluray

Descargar Embriagado de amor (2002) REMUX 1080p Latino-CMHDD


Aportes de DPeliculasHDmega la pass es:dpeliculashdmega.org Aportes de CinemaniaHD la pass es:cinemaniahdd.com Aportes recientes:cinemaniahdd.net
Guardado en : Comedia , Drama , Remux , Romance

Películas relacionadas

descargar Embriagado de amor (2002) REMUX 1080p Latino-CMHDD Full 1080p 1080p gratis, Embriagado de amor (2002) REMUX 1080p Latino-CMHDD Full 1080p mega 1 link, Embriagado de amor (2002) REMUX 1080p Latino-CMHDD Full 1080p pelicula completa, descargar Embriagado de amor (2002) REMUX 1080p Latino-CMHDD Full 1080p gratis en mega.

Embriagado de amor (2002) REMUX 1080p Latino-CMHDD pelicula full hd, Embriagado de amor (2002) REMUX 1080p Latino-CMHDD mega latino, Embriagado de amor (2002) REMUX 1080p Latino-CMHDD 4k latino, Embriagado de amor (2002) REMUX 1080p Latino-CMHDD pelicula completa, Embriagado de amor (2002) REMUX 1080p Latino-CMHDD descargar gratis, descargar Embriagado de amor (2002) REMUX 1080p Latino-CMHDD pelicula latino, Embriagado de amor (2002) REMUX 1080p Latino-CMHDD 1 link mega, Embriagado de amor (2002) REMUX 1080p Latino-CMHDD 1 link google drive, Embriagado de amor (2002) REMUX 1080p Latino-CMHDD hd 1080p latino.
Comentarios 0