×

¿Problemas para descargar con Mozilla, EDGE? Deshabilita la opción "Abrir vinculos en una pestaña nueva" tal como lo muestra ésta imagen.

Puedes hacerlo Chang (2023) D+ WEB-DL 1080p Latino

188 vistas

Información de Puedes hacerlo Chang (2023) D+ WEB-DL 1080p Latino

Datos de la película

  • Calidad: WEBDL
  • Audio: Español Latino AC3 5.1 WEB-DL - Ingles AC3 5.1 WEB-DL
  • Subtitulos: Español Latino SRT- FORZADOS SRT
  • Resolución: 1920x1080p
  • Formato: MKV
  • Codec: H.264
  • Encoder: Melkor
  • Mediainfo: Clic para Mostrar Datos Ver
  • Puedes Hacerlo Chang (2023) D+ WebDL 1080p Latino.mkv
    Format                      : Matroska
    Format version              : Version 4
    File size                   : 5.91 GiB
    Duration                    : 1 h 47 min
    Overall bit rate mode       : Variable
    Overall bit rate            : 7 853 kb/s
    Movie name                  : Chang Can Dunk (2023) CinemaniaHDD.Net
    Encoded date                : UTC 2023-03-13 02:02:17
    Writing application         : mkvmerge v56.1.0 ('My Friend') 64-bit
    Writing library             : libebml v1.4.2 + libmatroska v1.6.4
    Attachments                 : CINEMANIAHD.png
    Site                        : CinemaniaHDD.Net
    Uploader                    : Melkor

    Video
    ID                          : 1
    Format                      : AVC
    Format/Info                 : Advanced Video Codec
    Format profile              : High@L4
    Format settings             : CABAC / 4 Ref Frames
    Format settings, CABAC      : Yes
    Format settings, Reference  : 4 frames
    Codec ID                    : V_MPEG4/ISO/AVC
    Duration                    : 1 h 47 min
    Bit rate mode               : Variable
    Bit rate                    : 6 378 kb/s
    Maximum bit rate            : 12.7 Mb/s
    Width                       : 1 920 pixels
    Height                      : 1 080 pixels
    Display aspect ratio        : 16:9
    Frame rate mode             : Constant
    Frame rate                  : 24.000 FPS
    Color space                 : YUV
    Chroma subsampling          : 4:2:0
    Bit depth                   : 8 bits
    Scan type                   : Progressive
    Bits/(Pixel*Frame)          : 0.128
    Stream size                 : 4.80 GiB (81%)
    Title                       : Web HD1080p [CinemaniaHDD]
    Language                    : English
    Default                     : Yes
    Forced                      : Yes
    Color range                 : Limited
    Color primaries             : BT.709
    Transfer characteristics    : BT.709
    Matrix coefficients         : BT.709

    Audio #1
    ID                          : 2
    Format                      : AC-3
    Format/Info                 : Audio Coding 3
    Commercial name             : Dolby Digital
    Codec ID                    : A_AC3
    Duration                    : 1 h 47 min
    Bit rate mode               : Constant
    Bit rate                    : 448 kb/s
    Channel(s)                  : 6 channels
    Channel layout              : L R C LFE Ls Rs
    Sampling rate               : 48.0 kHz
    Frame rate                  : 31.250 FPS (1536 SPF)
    Compression mode            : Lossy
    Stream size                 : 345 MiB (6%)
    Title                       : Español Latino AC3 [CinemaniaHDD]
    Language                    : Spanish
    Service kind                : Complete Main
    Default                     : Yes
    Forced                      : Yes

    Audio #2
    ID                          : 3
    Format                      : E-AC-3
    Format/Info                 : Enhanced AC-3
    Commercial name             : Dolby Digital Plus
    Codec ID                    : A_EAC3
    Duration                    : 1 h 47 min
    Bit rate mode               : Constant
    Bit rate                    : 256 kb/s
    Channel(s)                  : 6 channels
    Channel layout              : L R C LFE Ls Rs
    Sampling rate               : 48.0 kHz
    Frame rate                  : 31.250 FPS (1536 SPF)
    Compression mode            : Lossy
    Stream size                 : 197 MiB (3%)
    Title                       : Español Latino EAC3 [CinemaniaHDD]
    Language                    : Spanish
    Service kind                : Complete Main
    Default                     : No
    Forced                      : No

    Audio #3
    ID                          : 4
    Format                      : E-AC-3 JOC
    Format/Info                 : Enhanced AC-3 with Joint Object Coding
    Commercial name             : Dolby Digital Plus with Dolby Atmos
    Codec ID                    : A_EAC3
    Duration                    : 1 h 47 min
    Bit rate mode               : Constant
    Bit rate                    : 768 kb/s
    Channel(s)                  : 6 channels
    Channel layout              : L R C LFE Ls Rs
    Sampling rate               : 48.0 kHz
    Frame rate                  : 31.250 FPS (1536 SPF)
    Compression mode            : Lossy
    Stream size                 : 591 MiB (10%)
    Title                       : Ingles [CinemaniaHDD]
    Language                    : English
    Service kind                : Complete Main
    Default                     : No
    Forced                      : No
    Complexity index            : 16
    Number of dynamic objects   : 15
    Bed channel count           : 1 channel
    Bed channel configuration   : LFE

    Text #1
    ID                          : 5
    Format                      : UTF-8
    Codec ID                    : S_TEXT/UTF8
    Codec ID/Info               : UTF-8 Plain Text
    Duration                    : 1 h 41 min
    Bit rate                    : 1 b/s
    Count of elements           : 62
    Stream size                 : 1.47 KiB (0%)
    Title                       : Forzados-SRT [CinemaniaHDD]
    Language                    : Spanish
    Default                     : Yes
    Forced                      : Yes

    Text #2
    ID                          : 6
    Format                      : UTF-8
    Codec ID                    : S_TEXT/UTF8
    Codec ID/Info               : UTF-8 Plain Text
    Duration                    : 1 h 46 min
    Bit rate                    : 59 b/s
    Count of elements           : 1576
    Stream size                 : 46.8 KiB (0%)
    Title                       : Español-SRT [CinemaniaHDD]
    Language                    : Spanish
    Default                     : No
    Forced                      : No

    Text #3
    ID                          : 7
    Format                      : UTF-8
    Codec ID                    : S_TEXT/UTF8
    Codec ID/Info               : UTF-8 Plain Text
    Duration                    : 1 h 43 min
    Bit rate                    : 75 b/s
    Count of elements           : 1659
    Stream size                 : 57.5 KiB (0%)
    Title                       : Ingles-SRT [CinemaniaHDD]
    Language                    : English
    Default                     : No
    Forced                      : No

    Menu
    00:06:10.500                : Scene 1
    00:22:05.458                : Scene 2
    00:33:42.375                : Scene 3
    00:45:54.625                : Scene 4
    00:53:41.250                : Scene 5
    01:06:43.333                : Scene 6
    01:20:31.417                : Scene 7
    01:27:51.333                : Scene 8
    01:38:51.500                : Scene 9
    01:42:14.375                : Credits

  • Peso: 5.91 GiB

Sinopsis

Descargar Puedes hacerlo Chang (2023) D+ WEB-DL 1080p Latino. Chang, un chaval asiático-estadounidense de 16 años, le apuesta al as del baloncesto de su instituto que podrá hacer un mate la noche del último partido de fútbol. Chang, que mide 1,72 m, se propone aprender a encestar un mate, no solo para impresionar a Kristy, la chica que le gusta, sino también para ganarse el respeto de sus compañeros. Pero, antes de que pueda saltar hasta el aro y encestar, le tocará replantearse todo lo que cree sobre sí mismo, sus amistades y su familia.

Ficha técnica

Video trailer de la película

Enlaces de descarga

Rip de Bluray

Descargar Puedes hacerlo Chang (2023) D+ WEB-DL 1080p Latino




Aportes de DPeliculasHDmega la pass es:dpeliculashdmega.org Aportes de CinemaniaHD la pass es:cinemaniahdd.com Aportes recientes:cinemaniahdd.net
Guardado en : Comedia , Drama , Familia

Películas relacionadas

  • Naturaleza Humana (2022) REMUX 1080p Latino

    Naturaleza Humana (2022) REMUX 1080p Latino

    2022
    Naturaleza Humana (2022) REMUX 1080p Latino

    1h 31m 2022

    Descargar Naturaleza Humana (2022) REMUX 1080p Latino. Una historia sobre la mayoría de edad contada...

    Director: Louie Gibson

    Género: Drama

    Actores: Tim Heidecker

  • Pobres criaturas (2023) WEB-DL 4K UHD HDR Latino

    Pobres criaturas (2023) WEB-DL 4K UHD HDR Latino

    2023
    Pobres criaturas (2023) WEB-DL 4K UHD HDR Latino

    2h 21m 2023

    Descargar Pobres criaturas (2023) WEB-DL 4K UHD HDR Latino. Bella Baxter es una joven revivida por el...

    Director: Yorgos Lanthimos

    Género: 4K HDR

    Actores: Zen Joshua Poisson

  • Pobres criaturas (2023) WEB-DL 1080p Latino

    Pobres criaturas (2023) WEB-DL 1080p Latino

    2023
    Pobres criaturas (2023) WEB-DL 1080p Latino

    2h 21m 2023

    Descargar Pobres criaturas (2023) WEB-DL 1080p Latino. Bella Baxter es una joven revivida por el brillante...

    Director: Yorgos Lanthimos

    Género: Ciencia ficción

    Actores: Zen Joshua Poisson

  • Wonka (2023) Full HD 1080p Latino-CMHDD

    Wonka (2023) Full HD 1080p Latino-CMHDD

    2023
    Wonka (2023) Full HD 1080p Latino-CMHDD

    1h 57m 2023

    Descargar Wonka (2023) Full HD 1080p Latino-CMHDD. Basada en el personaje que protagoniza "Charlie y...

    Director: Zoe Morgan

    Género: Comedia

    Actores: Tracy Ifeachor

descargar Puedes hacerlo Chang (2023) D+ WEB-DL 1080p Latino WEBDL 1080p gratis, Puedes hacerlo Chang (2023) D+ WEB-DL 1080p Latino WEBDL mega 1 link, Puedes hacerlo Chang (2023) D+ WEB-DL 1080p Latino WEBDL pelicula completa, descargar Puedes hacerlo Chang (2023) D+ WEB-DL 1080p Latino WEBDL gratis en mega.

Puedes hacerlo Chang (2023) D+ WEB-DL 1080p Latino pelicula full hd, Puedes hacerlo Chang (2023) D+ WEB-DL 1080p Latino mega latino, Puedes hacerlo Chang (2023) D+ WEB-DL 1080p Latino 4k latino, Puedes hacerlo Chang (2023) D+ WEB-DL 1080p Latino pelicula completa, Puedes hacerlo Chang (2023) D+ WEB-DL 1080p Latino descargar gratis, descargar Puedes hacerlo Chang (2023) D+ WEB-DL 1080p Latino pelicula latino, Puedes hacerlo Chang (2023) D+ WEB-DL 1080p Latino 1 link mega, Puedes hacerlo Chang (2023) D+ WEB-DL 1080p Latino 1 link google drive, Puedes hacerlo Chang (2023) D+ WEB-DL 1080p Latino hd 1080p latino.
Comentarios 0