×

¿Problemas para descargar con Mozilla, EDGE? Deshabilita la opción "Abrir vinculos en una pestaña nueva" tal como lo muestra ésta imagen.

¿Puedes guardar un secreto? (2019) REMUX 1080p Latino

271 vistas

Información de ¿Puedes guardar un secreto? (2019) REMUX 1080p Latino

Datos de la película

  • Calidad: Full 1080p
  • Audio: Se especifica abajo de la Sinopsis
  • Subtitulos: Español Latino SRT- FORZADOS SRT
  • Resolución: 1920x1080
  • Formato: MKV
  • Codec: H.264
  • Encoder: cinemaniahdd
  • Mediainfo: Clic para Mostrar Datos Ver
  • Can You Keep a Secret (2019) REMUX 1080p Latino [CNMNHDD].mkv
    Format                      : Matroska
    Format version              : Version 4
    File size                   : 27.9 GiB
    Duration                    : 1 h 34 min
    Overall bit rate mode       : Variable
    Overall bit rate            : 42.3 Mb/s
    Movie name                  : Can You Keep a Secret (2019) REMUX - CinemaniaHDD.Net
    Encoded date                : UTC 2020-12-05 02:44:48
    Writing application         : mkvmerge v51.0.0 ('I Wish') 64-bit
    Writing library             : libebml v1.4.0 + libmatroska v1.6.2

    Video
    ID                          : 1
    Format                      : AVC
    Format/Info                 : Advanced Video Codec
    Format profile              : High@L4.1
    Format settings             : CABAC / 4 Ref Frames
    Format settings, CABAC      : Yes
    Format settings, Reference  : 4 frames
    Codec ID                    : V_MPEG4/ISO/AVC
    Duration                    : 1 h 34 min
    Bit rate mode               : Variable
    Bit rate                    : 35.5 Mb/s
    Maximum bit rate            : 37.0 Mb/s
    Width                       : 1 920 pixels
    Height                      : 1 080 pixels
    Display aspect ratio        : 16:9
    Frame rate mode             : Constant
    Frame rate                  : 24.000 FPS
    Color space                 : YUV
    Chroma subsampling          : 4:2:0
    Bit depth                   : 8 bits
    Scan type                   : Progressive
    Bits/(Pixel*Frame)          : 0.714
    Stream size                 : 23.4 GiB (84%)
    Title                       : CinemaniaHDD
    Default                     : Yes
    Forced                      : No

    Audio #1
    ID                          : 2
    Format                      : AC-3
    Format/Info                 : Audio Coding 3
    Commercial name             : Dolby Digital
    Codec ID                    : A_AC3
    Duration                    : 1 h 34 min
    Bit rate mode               : Constant
    Bit rate                    : 640 kb/s
    Channel(s)                  : 6 channels
    Channel layout              : L R C LFE Ls Rs
    Sampling rate               : 48.0 kHz
    Frame rate                  : 31.250 FPS (1536 SPF)
    Compression mode            : Lossy
    Stream size                 : 432 MiB (2%)
    Title                       : Español latino - AC3 [CinemaniaHDD]
    Language                    : Spanish
    Service kind                : Complete Main
    Default                     : Yes
    Forced                      : No

    Audio #2
    ID                          : 3
    Format                      : E-AC-3
    Format/Info                 : Enhanced AC-3
    Commercial name             : Dolby Digital Plus
    Codec ID                    : A_EAC3
    Duration                    : 1 h 34 min
    Bit rate mode               : Constant
    Bit rate                    : 640 kb/s
    Channel(s)                  : 6 channels
    Channel layout              : L R C LFE Ls Rs
    Sampling rate               : 48.0 kHz
    Frame rate                  : 31.250 FPS (1536 SPF)
    Compression mode            : Lossy
    Stream size                 : 432 MiB (2%)
    Title                       : Español latino - E-AC3 [CinemaniaHDD]
    Language                    : Spanish
    Service kind                : Complete Main
    Default                     : No
    Forced                      : No

    Audio #3
    ID                          : 4
    Format                      : DTS XLL
    Format/Info                 : Digital Theater Systems
    Commercial name             : DTS-HD Master Audio
    Codec ID                    : A_DTS
    Duration                    : 1 h 34 min
    Bit rate mode               : Variable
    Bit rate                    : 3 348 kb/s
    Channel(s)                  : 6 channels
    Channel layout              : C L R Ls Rs LFE
    Sampling rate               : 48.0 kHz
    Frame rate                  : 93.750 FPS (512 SPF)
    Bit depth                   : 24 bits
    Compression mode            : Lossless
    Stream size                 : 2.21 GiB (8%)
    Title                       : Inglés - DTS-HD [CinemaniaHDD]
    Language                    : English
    Default                     : No
    Forced                      : No

    Audio #4
    ID                          : 5
    Format                      : DTS
    Format/Info                 : Digital Theater Systems
    Codec ID                    : A_DTS
    Duration                    : 1 h 34 min
    Bit rate mode               : Constant
    Bit rate                    : 1 509 kb/s
    Channel(s)                  : 6 channels
    Channel layout              : C L R Ls Rs LFE
    Sampling rate               : 48.0 kHz
    Frame rate                  : 93.750 FPS (512 SPF)
    Bit depth                   : 24 bits
    Compression mode            : Lossy
    Stream size                 : 1 019 MiB (4%)
    Title                       : Inglés - DTS [CinemaniaHDD]
    Language                    : English
    Default                     : No
    Forced                      : No

    Audio #5
    ID                          : 6
    Format                      : AC-3
    Format/Info                 : Audio Coding 3
    Commercial name             : Dolby Digital
    Codec ID                    : A_AC3
    Duration                    : 1 h 34 min
    Bit rate mode               : Constant
    Bit rate                    : 640 kb/s
    Channel(s)                  : 6 channels
    Channel layout              : L R C LFE Ls Rs
    Sampling rate               : 48.0 kHz
    Frame rate                  : 31.250 FPS (1536 SPF)
    Compression mode            : Lossy
    Stream size                 : 432 MiB (2%)
    Title                       : Inglés - AC3 [CinemaniaHDD]
    Language                    : English
    Service kind                : Complete Main
    Default                     : No
    Forced                      : No

    Text #1
    ID                          : 7
    Format                      : UTF-8
    Codec ID                    : S_TEXT/UTF8
    Codec ID/Info               : UTF-8 Plain Text
    Duration                    : 1 h 29 min
    Bit rate                    : 0 b/s
    Count of elements           : 6
    Stream size                 : 156 Bytes (0%)
    Title                       : Forzados [CinemaniaHDD]
    Language                    : Spanish
    Default                     : Yes
    Forced                      : Yes

    Text #2
    ID                          : 8
    Format                      : UTF-8
    Codec ID                    : S_TEXT/UTF8
    Codec ID/Info               : UTF-8 Plain Text
    Duration                    : 1 h 33 min
    Bit rate                    : 64 b/s
    Count of elements           : 1720
    Stream size                 : 44.5 KiB (0%)
    Title                       : Español latino [CinemaniaHDD]
    Language                    : Spanish
    Default                     : No
    Forced                      : No

    Text #3
    ID                          : 9
    Format                      : UTF-8
    Codec ID                    : S_TEXT/UTF8
    Codec ID/Info               : UTF-8 Plain Text
    Duration                    : 1 h 32 min
    Bit rate                    : 86 b/s
    Count of elements           : 2023
    Stream size                 : 58.7 KiB (0%)
    Title                       : Inglés [CinemaniaHDD]
    Language                    : English
    Default                     : No
    Forced                      : No

    Menu
    00:00:00.000                : en:Chapter 01
    00:06:06.250                : en:Chapter 02
    00:11:55.750                : en:Chapter 03
    00:20:55.833                : en:Chapter 04
    00:25:09.042                : en:Chapter 05
    00:31:29.708                : en:Chapter 06
    00:38:51.500                : en:Chapter 07
    00:46:20.667                : en:Chapter 08
    00:54:59.833                : en:Chapter 09
    01:01:09.458                : en:Chapter 10
    01:05:15.042                : en:Chapter 11
    01:12:42.583                : en:Chapter 12
    01:17:24.333                : en:Chapter 13
    01:21:49.917                : en:Chapter 14
    01:25:10.000                : en:Chapter 15
    01:30:27.208                : en:Chapter 16

     

  • Peso: 27.9 GiB

Sinopsis

Durante un vuelo en avión, pensando que van a estrellarse, la joven Emma Corrigan le desvela sus más profundos secretos a su compañero de asiento, un completo extraño. Cuando el incidente se resuelve, Emma descubre que el extraño, al que no pensaba volver a ver, es Jack Harper, su nuevo jefe, y que además ahora conoce sus secretos más íntimos… Basado en un bestseller del New York Times.

Español Latino E-AC3 5.1 + AC3 – Ingles DTS-HD 5.1 + DTS & AC3

Ficha técnica

  • Titulo original: Can You Keep a Secret?
  • Fecha de lanzamiento: 13-09-2019 (United States of America)
  • Director: Elise Duran
  • Género: Comedia, Remux, Romance

Video trailer de la película

Enlaces de descarga

Rip de Bluray

Descargar ¿Puedes guardar un secreto? (2019) REMUX 1080p Latino




Aportes de DPeliculasHDmega la pass es:dpeliculashdmega.org Aportes de CinemaniaHD la pass es:cinemaniahdd.com
Guardado en : Comedia , Remux , Romance

Películas relacionadas

descargar ¿Puedes guardar un secreto? (2019) REMUX 1080p Latino Full 1080p 1080p gratis, ¿Puedes guardar un secreto? (2019) REMUX 1080p Latino Full 1080p mega 1 link, ¿Puedes guardar un secreto? (2019) REMUX 1080p Latino Full 1080p pelicula completa, descargar ¿Puedes guardar un secreto? (2019) REMUX 1080p Latino Full 1080p gratis en mega.

¿Puedes guardar un secreto? (2019) REMUX 1080p Latino pelicula full hd, ¿Puedes guardar un secreto? (2019) REMUX 1080p Latino mega latino, ¿Puedes guardar un secreto? (2019) REMUX 1080p Latino 4k latino, ¿Puedes guardar un secreto? (2019) REMUX 1080p Latino pelicula completa, ¿Puedes guardar un secreto? (2019) REMUX 1080p Latino descargar gratis, descargar ¿Puedes guardar un secreto? (2019) REMUX 1080p Latino pelicula latino, ¿Puedes guardar un secreto? (2019) REMUX 1080p Latino 1 link mega, ¿Puedes guardar un secreto? (2019) REMUX 1080p Latino 1 link google drive, ¿Puedes guardar un secreto? (2019) REMUX 1080p Latino hd 1080p latino.
Comentarios 0