Psycho BFF: Una Amiga Perturbada (2019) Webrip 1080p Latino

14 vistas
1 estrella2 estrellas3 estrellas4 estrellas5 estrellas (Ninguna valoración todavía)
Cargando…

Información de Psycho BFF: Una Amiga Perturbada (2019) Webrip 1080p Latino

Datos de la película

  • Calidad: WEBDL
  • Audio: Español Latino AC3 2.0 - Ingles AC3 2.0
  • Subtitulos: No
  • Resolución: 1920x1080p
  • Formato: MKV
  • Codec: H.264
  • Encoder: CinemaniaHD
  • Mediainfo: Clic para Mostrar Datos Ver
  • Una Amiga Perturbada (2019) Webrip 1080p Latino.mkv
    Format                      : Matroska
    Format version              : Version 4
    File size                   : 2.59 GiB
    Duration                    : 1 h 27 min
    Overall bit rate            : 4 217 kb/s
    Movie name                  : Psycho BFF (2019) CinemaniaHDD.Net
    Encoded date                : UTC 2020-06-30 04:47:13
    Writing application         : mkvmerge v46.0.0 ('No Deeper Escape') 64-bit
    Writing library             : libebml v1.3.10 + libmatroska v1.5.2
    Attachments                 : CINEMANIAHD.png

    Video
    ID                          : 1
    Format                      : AVC
    Format/Info                 : Advanced Video Codec
    Format profile              : High@L4
    Format settings             : CABAC / 3 Ref Frames
    Format settings, CABAC      : Yes
    Format settings, Reference  : 3 frames
    Codec ID                    : V_MPEG4/ISO/AVC
    Duration                    : 1 h 27 min
    Bit rate                    : 3 703 kb/s
    Width                       : 1 920 pixels
    Height                      : 1 080 pixels
    Display aspect ratio        : 16:9
    Frame rate mode             : Constant
    Frame rate                  : 23.976 (24000/1001) FPS
    Color space                 : YUV
    Chroma subsampling          : 4:2:0
    Bit depth                   : 8 bits
    Scan type                   : Progressive
    Bits/(Pixel*Frame)          : 0.074
    Stream size                 : 2.27 GiB (88%)
    Title                       : CinemaniaHDD
    Default                     : Yes
    Forced                      : No

    Audio #1
    ID                          : 2
    Format                      : AC-3
    Format/Info                 : Audio Coding 3
    Commercial name             : Dolby Digital
    Codec ID                    : A_AC3
    Duration                    : 1 h 27 min
    Bit rate mode               : Constant
    Bit rate                    : 256 kb/s
    Channel(s)                  : 2 channels
    Channel layout              : L R
    Sampling rate               : 48.0 kHz
    Frame rate                  : 31.250 FPS (1536 SPF)
    Compression mode            : Lossy
    Stream size                 : 161 MiB (6%)
    Title                       : Español latino [CinemaniaHDD]
    Language                    : Spanish
    Service kind                : Complete Main
    Default                     : Yes
    Forced                      : Yes

    Audio #2
    ID                          : 3
    Format                      : AC-3
    Format/Info                 : Audio Coding 3
    Commercial name             : Dolby Digital
    Codec ID                    : A_AC3
    Duration                    : 1 h 27 min
    Bit rate mode               : Constant
    Bit rate                    : 256 kb/s
    Channel(s)                  : 2 channels
    Channel layout              : L R
    Sampling rate               : 48.0 kHz
    Frame rate                  : 31.250 FPS (1536 SPF)
    Compression mode            : Lossy
    Stream size                 : 161 MiB (6%)
    Title                       : Ingles [CinemaniaHDD]
    Language                    : English
    Service kind                : Complete Main
    Default                     : No
    Forced                      : No

  • Peso: 2.59 GiB

Sinopsis

Descargar Psycho BFF: Una Amiga Perturbada (2019) Webrip 1080p Latino. Cuando la tímida hija adolescente de Renee, Deandra, finalmente hace una amiga, Olivia, se emociona. Después de que la actitud de mando de Olivia se convierta en abuso emocional, Renee prohíbe que la relación continúe, lo que lleva a las chicas a huir juntas. Renee se embarca en una búsqueda desesperada de su hija, antes de perderla para siempre

Ficha técnica

Video trailer de la película

Enlaces de descarga

Rip de Bluray

Descargar Psycho BFF: Una Amiga Perturbada (2019) Webrip 1080p Latino




Aportes de DPeliculasHDmega la pass es:dpeliculashdmega.org Aportes de CinemaniaHD la pass es:cinemaniahdd.com
Guardado en : Suspenso

Películas relacionadas

  • Punto de Control (2017) 1080p Latino

    Punto de Control (2017) 1080p Latino

    2017
    Punto de Control (2017) 1080p Latino

    5.0 1h 40m 2017

    Puerto de Carolina del Norte: durante un campamento de rutina, un vagabundo local descubre planes para...

    Director: Thomas J. Churchill

    Género: Acción

    Actores: William Forsythe

  • Behind the Trees (2019) Web-DL 1080p Latino

    Behind the Trees (2019) Web-DL 1080p Latino

    2019
    Behind the Trees (2019) Web-DL 1080p Latino

    5.0 1h 38m 2019

    Descargar Behind the Trees (2019) Web-DL 1080p Latino. Mientras se encuentra en una escapada romántica...

    Director: Vikram Jayakumar

    Género: Misterio

    Actores: Vanessa Curry

  • The Good Son (1993) HD 1080p Latino – CMHDD

    The Good Son (1993) HD 1080p Latino – CMHDD

    1993
    The Good Son (1993) HD 1080p Latino – CMHDD

    0.0 1h 26m 1993

    Henry Evans es un niño tan modélico que sus padres tienen razones de sobra para sentirse orgullosos...

    Director: Samantha Timmerman

    Género: Suspenso

    Actores: Wendy Crewson

  • The Good Son (1993) Full HD 1080p Latino – CMHDD

    The Good Son (1993) Full HD 1080p Latino – CMHDD

    1993
    The Good Son (1993) Full HD 1080p Latino – CMHDD

    0.0 1h 26m 1993

    Henry Evans es un niño tan modélico que sus padres tienen razones de sobra para sentirse orgullosos...

    Director: Samantha Timmerman

    Género: FULL 1080p Plateadas

    Actores: Wendy Crewson

  • The Good Son (1993) REMUX 1080p Latino – CMHDD

    The Good Son (1993) REMUX 1080p Latino – CMHDD

    1993
    The Good Son (1993) REMUX 1080p Latino – CMHDD

    0.0 1h 26m 1993

    Henry Evans es un niño tan modélico que sus padres tienen razones de sobra para sentirse orgullosos...

    Director: Samantha Timmerman

    Género: Suspenso

    Actores: Wendy Crewson

Comentarios 0