×

¿Problemas para descargar con Mozilla, EDGE? Deshabilita la opción "Abrir vinculos en una pestaña nueva" tal como lo muestra ésta imagen.

Proyecto Exorcismo (2019) REMUX 1080p Latino

267 vistas

Información de Proyecto Exorcismo (2019) REMUX 1080p Latino

Datos de la película

  • Calidad: Full 1080p
  • Audio: Español Latino AC3 2.0 DVD - Ingles DTS 5.1 BLURAY
  • Subtitulos: Español Latino SRT- FORZADOS SRT
  • Resolución: 1920x1080p
  • Formato: MKV
  • Codec: H.264
  • Encoder: Melkor
  • Mediainfo: Clic para Mostrar Datos Ver
  • Proyecto Exorcismo (2019) REMUX 1080p Latino.mkv
    Format                      : Matroska
    Format version              : Version 4
    File size                   : 17.3 GiB
    Duration                    : 1 h 34 min
    Overall bit rate mode       : Variable
    Overall bit rate            : 26.1 Mb/s
    Movie name                  : The Cleansing Hour (2019) CinemaniaHDD.Net
    Encoded date                : UTC 2021-04-18 06:47:43
    Writing application         : mkvmerge v51.0.0 ('I Wish') 64-bit
    Writing library             : libebml v1.4.0 + libmatroska v1.6.2
    Attachments                 : CINEMANIAHD.png

    Video
    ID                          : 1
    Format                      : AVC
    Format/Info                 : Advanced Video Codec
    Format profile              : High@L4.1
    Format settings             : CABAC / 4 Ref Frames
    Format settings, CABAC      : Yes
    Format settings, Reference  : 4 frames
    Codec ID                    : V_MPEG4/ISO/AVC
    Duration                    : 1 h 34 min
    Bit rate mode               : Variable
    Bit rate                    : 23.5 Mb/s
    Maximum bit rate            : 38.0 Mb/s
    Width                       : 1 920 pixels
    Height                      : 1 080 pixels
    Display aspect ratio        : 16:9
    Frame rate mode             : Constant
    Frame rate                  : 23.976 (24000/1001) FPS
    Color space                 : YUV
    Chroma subsampling          : 4:2:0
    Bit depth                   : 8 bits
    Scan type                   : Progressive
    Bits/(Pixel*Frame)          : 0.472
    Stream size                 : 15.6 GiB (90%)
    Title                       : REMUX HD1080p [CinemaniaHDD]
    Language                    : English
    Default                     : Yes
    Forced                      : No

    Audio #1
    ID                          : 2
    Format                      : AC-3
    Format/Info                 : Audio Coding 3
    Commercial name             : Dolby Digital
    Codec ID                    : A_AC3
    Duration                    : 1 h 34 min
    Bit rate mode               : Constant
    Bit rate                    : 192 kb/s
    Channel(s)                  : 2 channels
    Channel layout              : L R
    Sampling rate               : 48.0 kHz
    Frame rate                  : 31.250 FPS (1536 SPF)
    Compression mode            : Lossy
    Stream size                 : 130 MiB (1%)
    Title                       : Español Latino [CinemaniaHDD]
    Language                    : Spanish
    Service kind                : Complete Main
    Default                     : Yes
    Forced                      : No

    Audio #2
    ID                          : 3
    Format                      : DTS XLL
    Format/Info                 : Digital Theater Systems
    Commercial name             : DTS-HD Master Audio
    Codec ID                    : A_DTS
    Duration                    : 1 h 34 min
    Bit rate mode               : Variable
    Bit rate                    : 2 400 kb/s
    Channel(s)                  : 6 channels
    Channel layout              : C L R Ls Rs LFE
    Sampling rate               : 48.0 kHz
    Frame rate                  : 93.750 FPS (512 SPF)
    Bit depth                   : 16 bits
    Compression mode            : Lossless
    Stream size                 : 1.59 GiB (9%)
    Title                       : Ingles [CinemaniaHDD]
    Language                    : English
    Default                     : No
    Forced                      : No

    Text #1
    ID                          : 4
    Format                      : UTF-8
    Codec ID                    : S_TEXT/UTF8
    Codec ID/Info               : UTF-8 Plain Text
    Duration                    : 1 h 26 min
    Bit rate                    : 2 b/s
    Count of elements           : 54
    Stream size                 : 1.71 KiB (0%)
    Title                       : Forzados-SRT [CinemaniaHDD]
    Language                    : Spanish
    Default                     : Yes
    Forced                      : No

    Text #2
    ID                          : 5
    Format                      : UTF-8
    Codec ID                    : S_TEXT/UTF8
    Codec ID/Info               : UTF-8 Plain Text
    Duration                    : 1 h 30 min
    Bit rate                    : 53 b/s
    Count of elements           : 1199
    Stream size                 : 35.7 KiB (0%)
    Title                       : Español-SRT [CinemaniaHDD]
    Language                    : Spanish
    Default                     : No
    Forced                      : No

    Text #3
    ID                          : 6
    Format                      : UTF-8
    Codec ID                    : S_TEXT/UTF8
    Codec ID/Info               : UTF-8 Plain Text
    Duration                    : 1 h 28 min
    Bit rate                    : 56 b/s
    Count of elements           : 1356
    Stream size                 : 36.6 KiB (0%)
    Title                       : Ingles-SRT [CinemaniaHDD]
    Language                    : English
    Default                     : No
    Forced                      : No

    Menu
    00:00:00.000                : en:00:00:00.000
    00:08:11.324                : en:00:08:11.324
    00:14:08.014                : en:00:14:08.014
    00:20:48.080                : en:00:20:48.080
    00:28:01.305                : en:00:28:01.305
    00:34:16.221                : en:00:34:16.221
    00:41:57.807                : en:00:41:57.807
    00:48:49.844                : en:00:48:49.844
    00:56:34.725                : en:00:56:34.725
    01:04:50.178                : en:01:04:50.178
    01:12:03.694                : en:01:12:03.694
    01:20:29.867                : en:01:20:29.867

  • Peso: 17.3 GiB

Sinopsis

Descargar Proyecto Exorcismo (2019) REMUX 1080p Latino. Millennials y emprendedores, Drew y Max se dedican a transmitir exorcismos en directo, aunque, en realidad, las posesiones no son nada más que una puesta en escena. Hoy el destino les tiene reservada una vuelta de tuerca: la actriz protagonista del show ha sido poseída por un demonio de verdad, que alberga misteriosas intenciones. Para colmo, la víctima de la posesión es la novia de Drew.

Ficha técnica

  • Titulo original: The Cleansing Hour
  • Fecha de lanzamiento: 06-12-2019 (United States of America)
  • Director: Damien LeVeck
  • Género: Remux, Terror

Video trailer de la película

Enlaces de descarga

Rip de Bluray

Descargar Proyecto Exorcismo (2019) REMUX 1080p Latino




Aportes de DPeliculasHDmega la pass es:dpeliculashdmega.org Aportes de CinemaniaHD la pass es:cinemaniahdd.com
Guardado en : Remux , Terror

Películas relacionadas

  • Un mundo extraño (2022) REMUX 1080p Latino

    Un mundo extraño (2022) REMUX 1080p Latino

    2022
    Un mundo extraño (2022) REMUX 1080p Latino

    1h 42m 2022

    Descargar Un mundo extraño (2022) REMUX 1080p. Un viaje a una tierra inexplorada y traicionera en la...

    Director: Thai Bettistea

    Género: Animación

    Actores: Reed Buck

  • Lobo Vikingo (2022) NF WEB-DL 1080p Latino

    Lobo Vikingo (2022) NF WEB-DL 1080p Latino

    2022
    Lobo Vikingo (2022) NF WEB-DL 1080p Latino

    1h 38m 2022

    Descargar Lobo Vikingo (2022) NF WEB-DL 1080p Latino. Thale (17) acaba de mudarse con sus padres a un...

    Director: Stig Svendsen

    Género: Netflix

    Actores: Vidar Magnussen

  • Corazón de tinta (2008) REMUX 1080p Latino

    Corazón de tinta (2008) REMUX 1080p Latino

    2008
    Corazón de tinta (2008) REMUX 1080p Latino

    1h 46m 2008

    Descargar Corazón de tinta (2008) REMUX 1080p Latino. Mortimer “Mo” Folchart y su hija de 12 años,...

    Director: Sharon Mansfield

    Género: Aventura

    Actores: Tereza Srbová

  • Juego de espías (2001) REMUX 1080p Latino

    Juego de espías (2001) REMUX 1080p Latino

    2001
    Juego de espías (2001) REMUX 1080p Latino

    1h 55m 2001

    Descargar Juego de espías (2001) REMUX 1080p Latino. El día de su jubilación, el veterano agente de...

    Director: Tony Scott

    Género: Acción

    Actores: Zsolt Zágoni

descargar Proyecto Exorcismo (2019) REMUX 1080p Latino Full 1080p 1080p gratis, Proyecto Exorcismo (2019) REMUX 1080p Latino Full 1080p mega 1 link, Proyecto Exorcismo (2019) REMUX 1080p Latino Full 1080p pelicula completa, descargar Proyecto Exorcismo (2019) REMUX 1080p Latino Full 1080p gratis en mega.

Proyecto Exorcismo (2019) REMUX 1080p Latino pelicula full hd, Proyecto Exorcismo (2019) REMUX 1080p Latino mega latino, Proyecto Exorcismo (2019) REMUX 1080p Latino 4k latino, Proyecto Exorcismo (2019) REMUX 1080p Latino pelicula completa, Proyecto Exorcismo (2019) REMUX 1080p Latino descargar gratis, descargar Proyecto Exorcismo (2019) REMUX 1080p Latino pelicula latino, Proyecto Exorcismo (2019) REMUX 1080p Latino 1 link mega, Proyecto Exorcismo (2019) REMUX 1080p Latino 1 link google drive, Proyecto Exorcismo (2019) REMUX 1080p Latino hd 1080p latino.
Comentarios 0