Proyecto Exorcismo (2019) PLACEBO Full HD 1080p Latino

51 vistas
1 estrella2 estrellas3 estrellas4 estrellas5 estrellas (Ninguna valoración todavía)
Cargando...

Información de Proyecto Exorcismo (2019) PLACEBO Full HD 1080p Latino

Datos de la película

  • Calidad: Full 1080p
  • Audio: Español Latino AC3 2.0 DVD - Ingles DTS 5.1 BLURAY
  • Subtitulos: Español Latino SRT- FORZADOS SRT
  • Resolución: 1920x1080p
  • Formato: MKV
  • Codec: H.264
  • Encoder: Melkor
  • Mediainfo: Clic para Mostrar Datos Ver
  • Proyecto Exorcismo (2019) PLACEBO Full HD 1080p Latino.mkv
    Format                      : Matroska
    Format version              : Version 4
    File size                   : 4.57 GiB
    Duration                    : 1 h 34 min
    Overall bit rate            : 6 893 kb/s
    Movie name                  : The Cleansing Hour (2019) CinemaniaHDD.Net
    Encoded date                : UTC 2021-04-18 07:03:08
    Writing application         : mkvmerge v51.0.0 ('I Wish') 64-bit
    Writing library             : libebml v1.4.0 + libmatroska v1.6.2
    Attachments                 : CINEMANIAHD.png

    Video
    ID                          : 1
    Format                      : AVC
    Format/Info                 : Advanced Video Codec
    Format profile              : High@L4.1
    Format settings             : CABAC / 4 Ref Frames
    Format settings, CABAC      : Yes
    Format settings, Reference  : 4 frames
    Codec ID                    : V_MPEG4/ISO/AVC
    Duration                    : 1 h 34 min
    Bit rate                    : 5 189 kb/s
    Width                       : 1 920 pixels
    Height                      : 1 080 pixels
    Display aspect ratio        : 16:9
    Frame rate mode             : Constant
    Frame rate                  : 23.976 (24000/1001) FPS
    Color space                 : YUV
    Chroma subsampling          : 4:2:0
    Bit depth                   : 8 bits
    Scan type                   : Progressive
    Bits/(Pixel*Frame)          : 0.104
    Stream size                 : 3.44 GiB (75%)
    Title                       : Full HD1080p [CinemaniaHDD]
    Writing library             : x264 core 157 r2935 545de2f
    Encoding settings           : cabac=1 / ref=4 / deblock=1:0:0 / analyse=0x3:0x133 / me=tesa / subme=11 / psy=1 / psy_rd=1.00:0.00 / mixed_ref=1 / me_range=24 / chroma_me=1 / trellis=2 / 8x8dct=1 / cqm=0 / deadzone=21,11 / fast_pskip=0 / chroma_qp_offset=-2 / threads=24 / lookahead_threads=6 / sliced_threads=0 / nr=0 / decimate=1 / interlaced=0 / bluray_compat=0 / constrained_intra=0 / bframes=16 / b_pyramid=2 / b_adapt=2 / b_bias=0 / direct=3 / weightb=1 / open_gop=0 / weightp=2 / keyint=240 / keyint_min=24 / scenecut=40 / intra_refresh=0 / rc_lookahead=60 / rc=crf / mbtree=1 / crf=20.0 / qcomp=0.60 / qpmin=0 / qpmax=69 / qpstep=4 / vbv_maxrate=62500 / vbv_bufsize=78125 / crf_max=0.0 / nal_hrd=none / filler=0 / ip_ratio=1.40 / aq=1:1.00
    Default                     : Yes
    Forced                      : Yes
    Color range                 : Limited
    Color primaries             : BT.709
    Transfer characteristics    : BT.709
    Matrix coefficients         : BT.709

    Audio #1
    ID                          : 2
    Format                      : AC-3
    Format/Info                 : Audio Coding 3
    Commercial name             : Dolby Digital
    Codec ID                    : A_AC3
    Duration                    : 1 h 34 min
    Bit rate mode               : Constant
    Bit rate                    : 192 kb/s
    Channel(s)                  : 2 channels
    Channel layout              : L R
    Sampling rate               : 48.0 kHz
    Frame rate                  : 31.250 FPS (1536 SPF)
    Compression mode            : Lossy
    Stream size                 : 130 MiB (3%)
    Title                       : Español Latino [CinemaniaHDD]
    Language                    : Spanish
    Service kind                : Complete Main
    Default                     : Yes
    Forced                      : Yes

    Audio #2
    ID                          : 3
    Format                      : DTS
    Format/Info                 : Digital Theater Systems
    Codec ID                    : A_DTS
    Duration                    : 1 h 34 min
    Bit rate mode               : Constant
    Bit rate                    : 1 509 kb/s
    Channel(s)                  : 6 channels
    Channel layout              : C L R Ls Rs LFE
    Sampling rate               : 48.0 kHz
    Frame rate                  : 93.750 FPS (512 SPF)
    Bit depth                   : 24 bits
    Compression mode            : Lossy
    Stream size                 : 1.00 GiB (22%)
    Default                     : No
    Forced                      : No

    Text #1
    ID                          : 4
    Format                      : UTF-8
    Codec ID                    : S_TEXT/UTF8
    Codec ID/Info               : UTF-8 Plain Text
    Duration                    : 1 h 26 min
    Bit rate                    : 2 b/s
    Count of elements           : 54
    Stream size                 : 1.71 KiB (0%)
    Title                       : Forzados-SRT [CinemaniaHDD]
    Language                    : Spanish
    Default                     : Yes
    Forced                      : Yes

    Text #2
    ID                          : 5
    Format                      : UTF-8
    Codec ID                    : S_TEXT/UTF8
    Codec ID/Info               : UTF-8 Plain Text
    Duration                    : 1 h 30 min
    Bit rate                    : 53 b/s
    Count of elements           : 1199
    Stream size                 : 35.7 KiB (0%)
    Title                       : Español-SRT [CinemaniaHDD]
    Language                    : Spanish
    Default                     : No
    Forced                      : No

    Text #3
    ID                          : 6
    Format                      : UTF-8
    Codec ID                    : S_TEXT/UTF8
    Codec ID/Info               : UTF-8 Plain Text
    Duration                    : 1 h 28 min
    Bit rate                    : 56 b/s
    Count of elements           : 1356
    Stream size                 : 36.6 KiB (0%)
    Title                       : Ingles-SRT [CinemaniaHDD]
    Language                    : English
    Default                     : No
    Forced                      : No

    Menu
    00:00:00.000                : en:00:00:00.000
    00:08:11.324                : en:00:08:11.324
    00:14:08.014                : en:00:14:08.014
    00:20:48.080                : en:00:20:48.080
    00:28:01.305                : en:00:28:01.305
    00:34:16.221                : en:00:34:16.221
    00:41:57.807                : en:00:41:57.807
    00:48:49.844                : en:00:48:49.844
    00:56:34.725                : en:00:56:34.725
    01:04:50.178                : en:01:04:50.178
    01:12:03.694                : en:01:12:03.694
    01:20:29.867                : en:01:20:29.867

  • Peso: 4.57 GiB

Sinopsis

Descargar Proyecto Exorcismo (2019) PLACEBO Full HD 1080p Latino. Millennials y emprendedores, Drew y Max se dedican a transmitir exorcismos en directo, aunque, en realidad, las posesiones no son nada más que una puesta en escena. Hoy el destino les tiene reservada una vuelta de tuerca: la actriz protagonista del show ha sido poseída por un demonio de verdad, que alberga misteriosas intenciones. Para colmo, la víctima de la posesión es la novia de Drew.

Ficha técnica

Video trailer de la película

Enlaces de descarga

Rip de Bluray

Descargar Proyecto Exorcismo (2019) PLACEBO Full HD 1080p Latino




Aportes de DPeliculasHDmega la pass es:dpeliculashdmega.org Aportes de CinemaniaHD la pass es:cinemaniahdd.com

Películas relacionadas

  • Loco Y Estúpido Amor (2011) Full HD 1080p Latino

    Loco Y Estúpido Amor (2011) Full HD 1080p Latino

    2011
    Loco Y Estúpido Amor (2011) Full HD 1080p Latino

    0.0 1h 58m 2011

    Descargar Loco Y Estúpido Amor (2011) Full HD 1080p Latino. La situación del cuarentón y puritano...

    Director: John Requa

    Género: Comedia

    Actores: Zayne Emory

  • Clínica de Zombies (2019) HD 1080p Latino

    Clínica de Zombies (2019) HD 1080p Latino

    2019
    Clínica de Zombies (2019) HD 1080p Latino

    0.0 1h 30m 2019

    Descargar Clínica de Zombies (2019) HD 1080p Latino. Yummy es una orgía de sangre, violencia y diversión...

    Director: Lars Damoiseaux

    Género: Acción

    Actores: Tom Audenaert

  • Clínica de Zombies (2019) PLACEBO Full HD 1080p Latino

    Clínica de Zombies (2019) PLACEBO Full HD 1080p Latino

    2019
    Clínica de Zombies (2019) PLACEBO Full HD 1080p Latino

    0.0 1h 30m 2019

    Descargar Clínica de Zombies (2019) PLACEBO Full HD 1080p Latino. Yummy es una orgía de sangre, violencia...

    Director: Lars Damoiseaux

    Género: Acción

    Actores: Tom Audenaert

Proyecto Exorcismo (2019) PLACEBO Full HD 1080p Latino pelicula full hd, Proyecto Exorcismo (2019) PLACEBO Full HD 1080p Latino mega latino, Proyecto Exorcismo (2019) PLACEBO Full HD 1080p Latino 4k latino, Proyecto Exorcismo (2019) PLACEBO Full HD 1080p Latino pelicula completa, Proyecto Exorcismo (2019) PLACEBO Full HD 1080p Latino descargar gratis, descargar Proyecto Exorcismo (2019) PLACEBO Full HD 1080p Latino pelicula latino, Proyecto Exorcismo (2019) PLACEBO Full HD 1080p Latino 1 link mega, Proyecto Exorcismo (2019) PLACEBO Full HD 1080p Latino 1 link google drive, Proyecto Exorcismo (2019) PLACEBO Full HD 1080p Latino hd 1080p latino.
Comentarios 0