Proyecto Exorcismo (2019) HD 1080p Latino

58 vistas
1 estrella2 estrellas3 estrellas4 estrellas5 estrellas (Ninguna valoración todavía)
Cargando...

Información de Proyecto Exorcismo (2019) HD 1080p Latino

Datos de la película

  • Calidad: 1080p
  • Audio: Español Latino AC3 2.0 DVD - Ingles AC3 5.1 BLURAY
  • Subtitulos: Español Latino SRT- FORZADOS SRT
  • Resolución: 1920x804
  • Formato: MKV
  • Codec: H.264
  • Encoder: Melkor
  • Mediainfo: Clic para Mostrar Datos Ver
  • Proyecto Exorcismo (2019) HD 1080p Latino.mkv
    Format                      : Matroska
    Format version              : Version 4
    File size                   : 2.69 GiB
    Duration                    : 1 h 34 min
    Overall bit rate            : 4 061 kb/s
    Movie name                  : The Cleansing Hour (2019) CinemaniaHDD.Net
    Encoded date                : UTC 2021-04-18 07:06:33
    Writing application         : mkvmerge v51.0.0 ('I Wish') 64-bit
    Writing library             : libebml v1.4.0 + libmatroska v1.6.2
    Attachments                 : CINEMANIAHD.png

    Video
    ID                          : 1
    Format                      : AVC
    Format/Info                 : Advanced Video Codec
    Format profile              : High@L4.1
    Format settings             : CABAC / 4 Ref Frames
    Format settings, CABAC      : Yes
    Format settings, Reference  : 4 frames
    Codec ID                    : V_MPEG4/ISO/AVC
    Duration                    : 1 h 34 min
    Bit rate                    : 3 500 kb/s
    Width                       : 1 920 pixels
    Height                      : 804 pixels
    Display aspect ratio        : 2.40:1
    Frame rate mode             : Constant
    Frame rate                  : 23.976 (24000/1001) FPS
    Color space                 : YUV
    Chroma subsampling          : 4:2:0
    Bit depth                   : 8 bits
    Scan type                   : Progressive
    Bits/(Pixel*Frame)          : 0.095
    Stream size                 : 2.27 GiB (84%)
    Title                       : HD1080p [CinemaniaHDD]
    Writing library             : x264 core 157 r2935 545de2f
    Encoding settings           : cabac=1 / ref=3 / deblock=1:0:0 / analyse=0x3:0x113 / me=hex / subme=7 / psy=1 / psy_rd=1.00:0.00 / mixed_ref=1 / me_range=16 / chroma_me=1 / trellis=1 / 8x8dct=1 / cqm=0 / deadzone=21,11 / fast_pskip=1 / chroma_qp_offset=-2 / threads=24 / lookahead_threads=4 / sliced_threads=0 / nr=0 / decimate=1 / interlaced=0 / bluray_compat=0 / constrained_intra=0 / bframes=3 / b_pyramid=2 / b_adapt=1 / b_bias=0 / direct=1 / weightb=1 / open_gop=0 / weightp=2 / keyint=240 / keyint_min=24 / scenecut=40 / intra_refresh=0 / rc_lookahead=40 / rc=abr / mbtree=1 / bitrate=3500 / ratetol=1.0 / qcomp=0.60 / qpmin=0 / qpmax=69 / qpstep=4 / vbv_maxrate=62500 / vbv_bufsize=78125 / nal_hrd=none / filler=0 / ip_ratio=1.40 / aq=1:1.00
    Default                     : Yes
    Forced                      : Yes
    Color range                 : Limited
    Color primaries             : BT.709
    Transfer characteristics    : BT.709
    Matrix coefficients         : BT.709

    Audio #1
    ID                          : 2
    Format                      : AC-3
    Format/Info                 : Audio Coding 3
    Commercial name             : Dolby Digital
    Codec ID                    : A_AC3
    Duration                    : 1 h 34 min
    Bit rate mode               : Constant
    Bit rate                    : 192 kb/s
    Channel(s)                  : 2 channels
    Channel layout              : L R
    Sampling rate               : 48.0 kHz
    Frame rate                  : 31.250 FPS (1536 SPF)
    Compression mode            : Lossy
    Delay relative to video     : -5 ms
    Stream size                 : 130 MiB (5%)
    Title                       : Español Latino [CinemaniaHDD]
    Language                    : Spanish
    Service kind                : Complete Main
    Default                     : Yes
    Forced                      : Yes

    Audio #2
    ID                          : 3
    Format                      : AC-3
    Format/Info                 : Audio Coding 3
    Commercial name             : Dolby Digital
    Codec ID                    : A_AC3
    Duration                    : 1 h 34 min
    Bit rate mode               : Constant
    Bit rate                    : 448 kb/s
    Channel(s)                  : 6 channels
    Channel layout              : L R C LFE Ls Rs
    Sampling rate               : 48.0 kHz
    Frame rate                  : 31.250 FPS (1536 SPF)
    Compression mode            : Lossy
    Delay relative to video     : -5 ms
    Stream size                 : 304 MiB (11%)
    Title                       : Ingles [CinemaniaHDD]
    Language                    : English
    Service kind                : Complete Main
    Default                     : No
    Forced                      : No

    Text #1
    ID                          : 4
    Format                      : UTF-8
    Codec ID                    : S_TEXT/UTF8
    Codec ID/Info               : UTF-8 Plain Text
    Duration                    : 1 h 26 min
    Bit rate                    : 2 b/s
    Count of elements           : 54
    Stream size                 : 1.71 KiB (0%)
    Title                       : Forzados-SRT [CinemaniaHDD]
    Language                    : Spanish
    Default                     : Yes
    Forced                      : Yes

    Text #2
    ID                          : 5
    Format                      : UTF-8
    Codec ID                    : S_TEXT/UTF8
    Codec ID/Info               : UTF-8 Plain Text
    Duration                    : 1 h 30 min
    Bit rate                    : 53 b/s
    Count of elements           : 1199
    Stream size                 : 35.7 KiB (0%)
    Title                       : Español-SRT [CinemaniaHDD]
    Language                    : Spanish
    Default                     : No
    Forced                      : No

    Text #3
    ID                          : 6
    Format                      : UTF-8
    Codec ID                    : S_TEXT/UTF8
    Codec ID/Info               : UTF-8 Plain Text
    Duration                    : 1 h 28 min
    Bit rate                    : 56 b/s
    Count of elements           : 1356
    Stream size                 : 36.6 KiB (0%)
    Title                       : Ingles-SRT [CinemaniaHDD]
    Language                    : English
    Default                     : No
    Forced                      : No

    Menu
    00:00:00.000                : en:00:00:00.000
    00:08:11.324                : en:00:08:11.324
    00:14:08.014                : en:00:14:08.014
    00:20:48.080                : en:00:20:48.080
    00:28:01.305                : en:00:28:01.305
    00:34:16.221                : en:00:34:16.221
    00:41:57.807                : en:00:41:57.807
    00:48:49.844                : en:00:48:49.844
    00:56:34.725                : en:00:56:34.725
    01:04:50.178                : en:01:04:50.178
    01:12:03.694                : en:01:12:03.694
    01:20:29.867                : en:01:20:29.867

  • Peso: 2.69 GiB

Sinopsis

Descargar Proyecto Exorcismo (2019) HD 1080p Latino. Millennials y emprendedores, Drew y Max se dedican a transmitir exorcismos en directo, aunque, en realidad, las posesiones no son nada más que una puesta en escena. Hoy el destino les tiene reservada una vuelta de tuerca: la actriz protagonista del show ha sido poseída por un demonio de verdad, que alberga misteriosas intenciones. Para colmo, la víctima de la posesión es la novia de Drew.

Ficha técnica

  • Titulo original: The Cleansing Hour
  • Fecha de lanzamiento: 06-12-2019 (United States of America)
  • Director: Damien LeVeck
  • Género: HD 1080p, Terror
  • Puntuación: 0.0 0 votos
  • Duración:
    1h 34m

Video trailer de la película

Enlaces de descarga

Rip de Bluray

Descargar Proyecto Exorcismo (2019) HD 1080p Latino




Aportes de DPeliculasHDmega la pass es:dpeliculashdmega.org Aportes de CinemaniaHD la pass es:cinemaniahdd.com
Guardado en : HD 1080p , Terror

Películas relacionadas

  • El Asesino De Las Postales (2020) HD 1080p Latino

    El Asesino De Las Postales (2020) HD 1080p Latino

    2020
    El Asesino De Las Postales (2020) HD 1080p Latino

    0.0 1h 41m 2020

    Descargar El Asesino De Las Postales (2020) HD 1080p Latino. Después de sufrir una tragedia personal,...

    Director: Will Cummins

    Género: Drama

    Actores: Tim Ahern

  • Loco Y Estúpido Amor (2011) 1080p Latino

    Loco Y Estúpido Amor (2011) 1080p Latino

    2011
    Loco Y Estúpido Amor (2011) 1080p Latino

    0.0 1h 58m 2011

    Descargar Loco Y Estúpido Amor (2011) 1080p Latino. La situación del cuarentón y puritano Cal Weaver...

    Director: John Requa

    Género: Comedia

    Actores: Zayne Emory

  • Clínica de Zombies (2019) HD 1080p Latino

    Clínica de Zombies (2019) HD 1080p Latino

    2019
    Clínica de Zombies (2019) HD 1080p Latino

    0.0 1h 30m 2019

    Descargar Clínica de Zombies (2019) HD 1080p Latino. Yummy es una orgía de sangre, violencia y diversión...

    Director: Lars Damoiseaux

    Género: Acción

    Actores: Tom Audenaert

  • Clínica de Zombies (2019) PLACEBO Full HD 1080p Latino

    Clínica de Zombies (2019) PLACEBO Full HD 1080p Latino

    2019
    Clínica de Zombies (2019) PLACEBO Full HD 1080p Latino

    0.0 1h 30m 2019

    Descargar Clínica de Zombies (2019) PLACEBO Full HD 1080p Latino. Yummy es una orgía de sangre, violencia...

    Director: Lars Damoiseaux

    Género: Acción

    Actores: Tom Audenaert

Proyecto Exorcismo (2019) HD 1080p Latino pelicula full hd, Proyecto Exorcismo (2019) HD 1080p Latino mega latino, Proyecto Exorcismo (2019) HD 1080p Latino 4k latino, Proyecto Exorcismo (2019) HD 1080p Latino pelicula completa, Proyecto Exorcismo (2019) HD 1080p Latino descargar gratis, descargar Proyecto Exorcismo (2019) HD 1080p Latino pelicula latino, Proyecto Exorcismo (2019) HD 1080p Latino 1 link mega, Proyecto Exorcismo (2019) HD 1080p Latino 1 link google drive, Proyecto Exorcismo (2019) HD 1080p Latino hd 1080p latino.