×

¿Problemas para descargar con Mozilla, EDGE? Deshabilita la opción "Abrir vinculos en una pestaña nueva" tal como lo muestra ésta imagen.

Promising Young Woman (2020) REMUX 1080p Latino – CMHDD

250 vistas

Información de Promising Young Woman (2020) REMUX 1080p Latino – CMHDD

Datos de la película

  • Calidad: 4K HDR
  • Audio: Se especifica abajo de la Sinopsis
  • Subtitulos: Español Latino PGS
  • Resolución: 1920x1080p
  • Formato: MKV
  • Codec: H.264
  • Encoder: Dracarys
  • Mediainfo: Clic para Mostrar Datos Ver
  • Format                      : Matroska
    Format version              : Version 4
    File size                   : 30.8 GiB
    Duration                    : 1 h 53 min
    Overall bit rate mode       : Variable
    Overall bit rate            : 38.8 Mb/s
    Movie name                  : Promising Young Woman (2020) REMUX 1080p Latino - CMHDD
    Encoded date                : UTC 2021-03-23 01:00:20
    Writing application         : mkvmerge v51.0.0 ('I Wish') 64-bit
    Writing library             : libebml v1.4.0 + libmatroska v1.6.2

    Video
    ID                          : 1
    ID in the original source m : 4113 (0x1011)
    Format                      : AVC
    Format/Info                 : Advanced Video Codec
    Format profile              : High@L4.1
    Format settings             : CABAC / 4 Ref Frames
    Format settings, CABAC      : Yes
    Format settings, Reference  : 4 frames
    Format settings, GOP        : M=3, N=12
    Codec ID                    : V_MPEG4/ISO/AVC
    Duration                    : 1 h 53 min
    Bit rate mode               : Variable
    Bit rate                    : 31.9 Mb/s
    Maximum bit rate            : 35.5 Mb/s
    Width                       : 1 920 pixels
    Height                      : 1 080 pixels
    Display aspect ratio        : 16:9
    Frame rate mode             : Constant
    Frame rate                  : 23.976 (24000/1001) FPS
    Color space                 : YUV
    Chroma subsampling          : 4:2:0
    Bit depth                   : 8 bits
    Scan type                   : Progressive
    Bits/(Pixel*Frame)          : 0.641
    Stream size                 : 25.3 GiB (82%)
    Language                    : English
    Default                     : No
    Forced                      : No
    Original source medium      : Blu-ray

    Audio #1
    ID                          : 2
    ID in the original source m : 4353 (0x1101)
    Format                      : DTS XBR
    Format/Info                 : Digital Theater Systems
    Commercial name             : DTS-HD High Resolution Audio
    Codec ID                    : A_DTS
    Duration                    : 1 h 53 min
    Bit rate mode               : Constant
    Bit rate                    : 2 046 kb/s
    Channel(s)                  : 8 channels
    Channel layout              : C L R LFE Lb Rb Lss Rss
    Sampling rate               : 48.0 kHz
    Frame rate                  : 93.750 FPS (512 SPF)
    Bit depth                   : 24 bits
    Compression mode            : Lossy
    Stream size                 : 1.62 GiB (5%)
    Language                    : Spanish
    Default                     : Yes
    Forced                      : No
    Original source medium      : Blu-ray

    Audio #2
    ID                          : 3
    ID in the original source m : 4352 (0x1100)
    Format                      : DTS XLL
    Format/Info                 : Digital Theater Systems
    Commercial name             : DTS-HD Master Audio
    Codec ID                    : A_DTS
    Duration                    : 1 h 53 min
    Bit rate mode               : Variable
    Bit rate                    : 4 892 kb/s
    Channel(s)                  : 8 channels
    Channel layout              : C L R LFE Lb Rb Lss Rss
    Sampling rate               : 48.0 kHz
    Frame rate                  : 93.750 FPS (512 SPF)
    Bit depth                   : 24 bits
    Compression mode            : Lossless
    Stream size                 : 3.88 GiB (13%)
    Language                    : English
    Default                     : No
    Forced                      : No
    Original source medium      : Blu-ray

    Text #1
    ID                          : 4
    ID in the original source m : 4609 (0x1201)
    Format                      : PGS
    Muxing mode                 : zlib
    Codec ID                    : S_HDMV/PGS
    Codec ID/Info               : Picture based subtitle format used on BDs/HD-DVDs
    Duration                    : 1 h 52 min
    Bit rate                    : 42.0 kb/s
    Count of elements           : 3626
    Stream size                 : 33.8 MiB (0%)
    Language                    : Spanish
    Default                     : No
    Forced                      : No
    Original source medium      : Blu-ray

    Text #2
    ID                          : 5
    ID in the original source m : 4611 (0x1203)
    Format                      : PGS
    Muxing mode                 : zlib
    Codec ID                    : S_HDMV/PGS
    Codec ID/Info               : Picture based subtitle format used on BDs/HD-DVDs
    Duration                    : 1 h 46 min
    Bit rate                    : 44 b/s
    Count of elements           : 4
    Stream size                 : 34.6 KiB (0%)
    Language                    : Spanish
    Default                     : Yes
    Forced                      : No
    Original source medium      : Blu-ray

    Menu
    00:00:00.000                : en:Chapter 01
    00:09:14.470                : en:Chapter 02
    00:13:58.128                : en:Chapter 03
    00:20:31.271                : en:Chapter 04
    00:25:48.004                : en:Chapter 05
    00:34:48.169                : en:Chapter 06
    00:40:19.333                : en:Chapter 07
    00:43:03.122                : en:Chapter 08
    00:49:25.629                : en:Chapter 09
    00:54:55.292                : en:Chapter 10
    00:59:28.565                : en:Chapter 11
    01:04:38.332                : en:Chapter 12
    01:08:13.422                : en:Chapter 13
    01:12:35.476                : en:Chapter 14
    01:18:40.090                : en:Chapter 15
    01:22:10.300                : en:Chapter 16
    01:26:14.961                : en:Chapter 17
    01:36:20.149                : en:Chapter 18
    01:43:49.681                : en:Chapter 19
    01:48:04.019                : en:Chapter 20

  • Peso: 30.8 GiB

Sinopsis

Cassie tenía un brillante futuro por delante hasta que un acontecimiento inesperado truncó su carrera. Ahora nada en su vida es lo que parece: es inteligente, audaz y vive una doble vida de noche. Cassie tiene la oportunidad de enmendar todo lo que no salió bien en su pasado… vengándose de los culpables.

 

Latino: DTS XBR 7.1  – Ingles: DTS XLL 7.1

Ficha técnica

Video trailer de la película

Enlaces de descarga

Rip de Bluray

Descargar Promising Young Woman (2020) REMUX 1080p Latino – CMHDD


Aportes de DPeliculasHDmega la pass es:dpeliculashdmega.org Aportes de CinemaniaHD la pass es:cinemaniahdd.com
Guardado en : Crimen , Drama , Suspenso

Películas relacionadas

descargar Promising Young Woman (2020) REMUX 1080p Latino – CMHDD 4K HDR 1080p gratis, Promising Young Woman (2020) REMUX 1080p Latino – CMHDD 4K HDR mega 1 link, Promising Young Woman (2020) REMUX 1080p Latino – CMHDD 4K HDR pelicula completa, descargar Promising Young Woman (2020) REMUX 1080p Latino – CMHDD 4K HDR gratis en mega.

Promising Young Woman (2020) REMUX 1080p Latino – CMHDD pelicula full hd, Promising Young Woman (2020) REMUX 1080p Latino – CMHDD mega latino, Promising Young Woman (2020) REMUX 1080p Latino – CMHDD 4k latino, Promising Young Woman (2020) REMUX 1080p Latino – CMHDD pelicula completa, Promising Young Woman (2020) REMUX 1080p Latino – CMHDD descargar gratis, descargar Promising Young Woman (2020) REMUX 1080p Latino – CMHDD pelicula latino, Promising Young Woman (2020) REMUX 1080p Latino – CMHDD 1 link mega, Promising Young Woman (2020) REMUX 1080p Latino – CMHDD 1 link google drive, Promising Young Woman (2020) REMUX 1080p Latino – CMHDD hd 1080p latino.
Comentarios 0