×

¿Problemas para descargar con Mozilla, EDGE? Deshabilita la opción "Abrir vinculos en una pestaña nueva" tal como lo muestra ésta imagen.

Promising Young Woman (2020) Full HD 1080p Latino – CMHDD

279 vistas

Información de Promising Young Woman (2020) Full HD 1080p Latino – CMHDD

Datos de la película

  • Calidad: Full 1080p
  • Audio: Se especifica abajo de la Sinopsis
  • Subtitulos: Español Latino PGS
  • Resolución: 1920x1080p
  • Formato: MKV
  • Codec: H.264
  • Encoder: Dracarys
  • Mediainfo: Clic para Mostrar Datos Ver
  • Format                      : Matroska
    Format version              : Version 4
    File size                   : 7.87 GiB
    Duration                    : 1 h 53 min
    Overall bit rate mode       : Variable
    Overall bit rate            : 9 930 kb/s
    Movie name                  : Promising Young Woman (2020) Full HD 1080p Latino - CMHDD
    Encoded date                : UTC 2021-03-23 00:57:00
    Writing application         : mkvmerge v51.0.0 ('I Wish') 64-bit
    Writing library             : libebml v1.4.0 + libmatroska v1.6.2

    Video
    ID                          : 1
    Format                      : AVC
    Format/Info                 : Advanced Video Codec
    Format profile              : High@L4.1
    Format settings             : CABAC / 4 Ref Frames
    Format settings, CABAC      : Yes
    Format settings, Reference  : 4 frames
    Codec ID                    : V_MPEG4/ISO/AVC
    Duration                    : 1 h 53 min
    Bit rate                    : 2 966 kb/s
    Width                       : 1 920 pixels
    Height                      : 1 080 pixels
    Display aspect ratio        : 16:9
    Frame rate mode             : Constant
    Frame rate                  : 23.976 (24000/1001) FPS
    Color space                 : YUV
    Chroma subsampling          : 4:2:0
    Bit depth                   : 8 bits
    Scan type                   : Progressive
    Bits/(Pixel*Frame)          : 0.060
    Stream size                 : 2.35 GiB (30%)
    Writing library             : x264 core 157 r2935 545de2f
    Encoding settings           : cabac=1 / ref=4 / deblock=1:0:0 / analyse=0x3:0x133 / me=tesa / subme=11 / psy=1 / psy_rd=1.00:0.00 / mixed_ref=1 / me_range=24 / chroma_me=1 / trellis=2 / 8x8dct=1 / cqm=0 / deadzone=21,11 / fast_pskip=0 / chroma_qp_offset=-2 / threads=24 / lookahead_threads=6 / sliced_threads=0 / nr=0 / decimate=1 / interlaced=0 / bluray_compat=0 / constrained_intra=0 / bframes=16 / b_pyramid=2 / b_adapt=2 / b_bias=0 / direct=3 / weightb=1 / open_gop=0 / weightp=2 / keyint=240 / keyint_min=24 / scenecut=40 / intra_refresh=0 / rc_lookahead=60 / rc=crf / mbtree=1 / crf=20.0 / qcomp=0.60 / qpmin=0 / qpmax=69 / qpstep=4 / vbv_maxrate=62500 / vbv_bufsize=78125 / crf_max=0.0 / nal_hrd=none / filler=0 / ip_ratio=1.40 / aq=1:1.00
    Default                     : Yes
    Forced                      : No
    Color range                 : Limited
    Color primaries             : BT.709
    Transfer characteristics    : BT.709
    Matrix coefficients         : BT.709

    Audio #1
    ID                          : 2
    Format                      : DTS XBR
    Format/Info                 : Digital Theater Systems
    Commercial name             : DTS-HD High Resolution Audio
    Codec ID                    : A_DTS
    Duration                    : 1 h 53 min
    Bit rate mode               : Constant
    Bit rate                    : 2 046 kb/s
    Channel(s)                  : 8 channels
    Channel layout              : C L R LFE Lb Rb Lss Rss
    Sampling rate               : 48.0 kHz
    Frame rate                  : 93.750 FPS (512 SPF)
    Bit depth                   : 24 bits
    Compression mode            : Lossy
    Stream size                 : 1.62 GiB (21%)
    Language                    : Spanish
    Default                     : Yes
    Forced                      : No

    Audio #2
    ID                          : 3
    Format                      : DTS XLL
    Format/Info                 : Digital Theater Systems
    Commercial name             : DTS-HD Master Audio
    Codec ID                    : A_DTS
    Duration                    : 1 h 53 min
    Bit rate mode               : Variable
    Bit rate                    : 4 892 kb/s
    Channel(s)                  : 8 channels
    Channel layout              : C L R LFE Lb Rb Lss Rss
    Sampling rate               : 48.0 kHz
    Frame rate                  : 93.750 FPS (512 SPF)
    Bit depth                   : 24 bits
    Compression mode            : Lossless
    Stream size                 : 3.88 GiB (49%)
    Language                    : English
    Default                     : No
    Forced                      : No

    Text #1
    ID                          : 4
    Format                      : PGS
    Muxing mode                 : zlib
    Codec ID                    : S_HDMV/PGS
    Codec ID/Info               : Picture based subtitle format used on BDs/HD-DVDs
    Duration                    : 1 h 46 min
    Bit rate                    : 44 b/s
    Count of elements           : 4
    Stream size                 : 34.6 KiB (0%)
    Language                    : Spanish
    Default                     : Yes
    Forced                      : No

    Text #2
    ID                          : 5
    Format                      : PGS
    Muxing mode                 : zlib
    Codec ID                    : S_HDMV/PGS
    Codec ID/Info               : Picture based subtitle format used on BDs/HD-DVDs
    Duration                    : 1 h 52 min
    Bit rate                    : 42.0 kb/s
    Count of elements           : 3626
    Stream size                 : 33.8 MiB (0%)
    Language                    : Spanish
    Default                     : No
    Forced                      : No

    Menu
    00:00:00.000                : :Chapter 1
    00:09:14.471                : :Chapter 2
    00:13:58.129                : :Chapter 3
    00:20:31.272                : :Chapter 4
    00:25:48.005                : :Chapter 5
    00:34:48.295                : :Chapter 6
    00:40:19.334                : :Chapter 7
    00:43:03.164                : :Chapter 8
    00:49:25.754                : :Chapter 9
    00:54:55.292                : :Chapter 10
    00:59:28.565                : :Chapter 11
    01:04:38.333                : :Chapter 12
    01:08:13.423                : :Chapter 13
    01:12:35.601                : :Chapter 14
    01:18:40.174                : :Chapter 15
    01:22:10.426                : :Chapter 16
    01:26:15.087                : :Chapter 17
    01:36:20.233                : :Chapter 18
    01:43:49.682                : :Chapter 19
    01:48:04.103                : :Chapter 20

  • Peso: 7.87 GiB

Sinopsis

Cassie tenía un brillante futuro por delante hasta que un acontecimiento inesperado truncó su carrera. Ahora nada en su vida es lo que parece: es inteligente, audaz y vive una doble vida de noche. Cassie tiene la oportunidad de enmendar todo lo que no salió bien en su pasado… vengándose de los culpables.

 

Latino: DTS XBR 7.1  – Ingles: DTS XLL 7.1

Ficha técnica

Video trailer de la película

Enlaces de descarga

Rip de Bluray

Descargar Promising Young Woman (2020) Full HD 1080p Latino – CMHDD




Aportes de DPeliculasHDmega la pass es:dpeliculashdmega.org Aportes de CinemaniaHD la pass es:cinemaniahdd.com
Guardado en : Crimen , Drama , Suspenso

Películas relacionadas

descargar Promising Young Woman (2020) Full HD 1080p Latino – CMHDD Full 1080p 1080p gratis, Promising Young Woman (2020) Full HD 1080p Latino – CMHDD Full 1080p mega 1 link, Promising Young Woman (2020) Full HD 1080p Latino – CMHDD Full 1080p pelicula completa, descargar Promising Young Woman (2020) Full HD 1080p Latino – CMHDD Full 1080p gratis en mega.

Promising Young Woman (2020) Full HD 1080p Latino – CMHDD pelicula full hd, Promising Young Woman (2020) Full HD 1080p Latino – CMHDD mega latino, Promising Young Woman (2020) Full HD 1080p Latino – CMHDD 4k latino, Promising Young Woman (2020) Full HD 1080p Latino – CMHDD pelicula completa, Promising Young Woman (2020) Full HD 1080p Latino – CMHDD descargar gratis, descargar Promising Young Woman (2020) Full HD 1080p Latino – CMHDD pelicula latino, Promising Young Woman (2020) Full HD 1080p Latino – CMHDD 1 link mega, Promising Young Woman (2020) Full HD 1080p Latino – CMHDD 1 link google drive, Promising Young Woman (2020) Full HD 1080p Latino – CMHDD hd 1080p latino.
Comentarios 0