×

¿Problemas para descargar con Mozilla, EDGE? Deshabilita la opción "Abrir vinculos en una pestaña nueva" tal como lo muestra ésta imagen.

Prometheus (2012) REMUX 4K HDR Latino – CMHDD

364 vistas

Información de Prometheus (2012) REMUX 4K HDR Latino – CMHDD

Datos de la película

  • Calidad: 4K HDR
  • Audio: Español Latino AC3 5.1 BLURAY - Ingles DTS-HD Master 7.1 BLURAY
  • Subtitulos: Español Latino PGS
  • Resolución: 3840x2160p
  • Formato: MKV
  • Codec: H.264
  • Encoder: Dracarys
  • Mediainfo: Clic para Mostrar Datos Ver
  • Format                      : Matroska
    Format version              : Version 4
    File size                   : 35.3 GiB
    Duration                    : 2 h 3 min
    Overall bit rate mode       : Variable
    Overall bit rate            : 40.8 Mb/s
    Movie name                  : Prometheus. (2012) REMUX 4K HDR Latino - CMHDD
    Encoded date                : UTC 2023-03-05 02:15:13
    Writing application         : mkvmerge v47.0.0 ('Black Flag') 64-bit
    Writing library             : libebml v1.3.10 + libmatroska v1.5.2

    Video
    ID                          : 1
    ID in the original source m : 4113 (0x1011)
    Format                      : HEVC
    Format/Info                 : High Efficiency Video Coding
    Format profile              : Main 10@L5.1@High
    HDR format                  : SMPTE ST 2086, HDR10 compatible
    Codec ID                    : V_MPEGH/ISO/HEVC
    Duration                    : 2 h 3 min
    Bit rate                    : 34.7 Mb/s
    Width                       : 3 840 pixels
    Height                      : 2 160 pixels
    Display aspect ratio        : 16:9
    Frame rate mode             : Constant
    Frame rate                  : 23.976 (24000/1001) FPS
    Color space                 : YUV
    Chroma subsampling          : 4:2:0 (Type 2)
    Bit depth                   : 10 bits
    Bits/(Pixel*Frame)          : 0.174
    Stream size                 : 30.0 GiB (85%)
    Language                    : English
    Default                     : No
    Forced                      : No
    Color range                 : Limited
    Color primaries             : BT.2020
    Transfer characteristics    : PQ
    Matrix coefficients         : BT.2020 non-constant
    Mastering display color pri : Display P3
    Mastering display luminance : min: 0.0050 cd/m2, max: 1000 cd/m2
    Original source medium      : Blu-ray

    Audio #1
    ID                          : 2
    ID in the original source m : 4352 (0x1100)
    Format                      : DTS XLL
    Format/Info                 : Digital Theater Systems
    Commercial name             : DTS-HD Master Audio
    Codec ID                    : A_DTS
    Duration                    : 2 h 3 min
    Bit rate mode               : Variable
    Bit rate                    : 4 987 kb/s
    Channel(s)                  : 8 channels
    Channel layout              : C L R LFE Lb Rb Lss Rss
    Sampling rate               : 48.0 kHz
    Frame rate                  : 93.750 FPS (512 SPF)
    Bit depth                   : 24 bits
    Compression mode            : Lossless
    Stream size                 : 4.31 GiB (12%)
    Title                       : DTS-HD MA 7.1
    Language                    : English
    Default                     : No
    Forced                      : No
    Original source medium      : Blu-ray

    Audio #2
    ID                          : 3
    Format                      : AC-3
    Format/Info                 : Audio Coding 3
    Commercial name             : Dolby Digital
    Codec ID                    : A_AC3
    Duration                    : 2 h 3 min
    Bit rate mode               : Constant
    Bit rate                    : 640 kb/s
    Channel(s)                  : 6 channels
    Channel layout              : L R C LFE Ls Rs
    Sampling rate               : 48.0 kHz
    Frame rate                  : 31.250 FPS (1536 SPF)
    Compression mode            : Lossy
    Stream size                 : 567 MiB (2%)
    Title                       : DD 5.1
    Language                    : English
    Service kind                : Complete Main
    Default                     : No
    Forced                      : No

    Audio #3
    ID                          : 4
    ID in the original source m : 4354 (0x1102)
    Format                      : AC-3
    Format/Info                 : Audio Coding 3
    Commercial name             : Dolby Digital
    Codec ID                    : A_AC3
    Duration                    : 2 h 3 min
    Bit rate mode               : Constant
    Bit rate                    : 448 kb/s
    Channel(s)                  : 6 channels
    Channel layout              : L R C LFE Ls Rs
    Sampling rate               : 48.0 kHz
    Frame rate                  : 31.250 FPS (1536 SPF)
    Compression mode            : Lossy
    Stream size                 : 397 MiB (1%)
    Title                       : DD 5.1
    Language                    : Spanish
    Service kind                : Complete Main
    Default                     : Yes
    Forced                      : No
    Original source medium      : Blu-ray

    Text
    ID                          : 5
    ID in the original source m : 4769 (0x12A1)
    Format                      : PGS
    Muxing mode                 : zlib
    Codec ID                    : S_HDMV/PGS
    Codec ID/Info               : Picture based subtitle format used on BDs/HD-DVDs
    Duration                    : 1 h 58 min
    Bit rate                    : 24.3 kb/s
    Frame rate                  : 0.404 FPS
    Count of elements           : 2874
    Stream size                 : 20.7 MiB (0%)
    Language                    : Spanish
    Default                     : No
    Forced                      : No
    Original source medium      : Blu-ray

    Menu
    00:00:00.000                : en:Chapter 01
    00:05:13.479                : en:Chapter 02
    00:07:44.881                : en:Chapter 03
    00:11:31.524                : en:Chapter 04
    00:15:09.700                : en:Chapter 05
    00:20:04.912                : en:Chapter 06
    00:22:32.476                : en:Chapter 07
    00:27:43.119                : en:Chapter 08
    00:31:57.832                : en:Chapter 09
    00:34:10.798                : en:Chapter 10
    00:37:52.979                : en:Chapter 11
    00:40:45.359                : en:Chapter 12
    00:45:49.079                : en:Chapter 13
    00:48:47.674                : en:Chapter 14
    00:50:22.936                : en:Chapter 15
    00:53:56.274                : en:Chapter 16
    00:56:31.930                : en:Chapter 17
    00:59:31.609                : en:Chapter 18
    01:01:28.810                : en:Chapter 19
    01:04:17.562                : en:Chapter 20
    01:06:01.332                : en:Chapter 21
    01:08:57.842                : en:Chapter 22
    01:11:13.519                : en:Chapter 23
    01:15:10.255                : en:Chapter 24
    01:17:06.079                : en:Chapter 25
    01:25:02.305                : en:Chapter 26
    01:27:09.349                : en:Chapter 27
    01:30:10.071                : en:Chapter 28
    01:32:43.683                : en:Chapter 29
    01:35:22.800                : en:Chapter 30
    01:37:46.735                : en:Chapter 31
    01:40:46.123                : en:Chapter 32
    01:43:46.094                : en:Chapter 33
    01:48:28.919                : en:Chapter 34
    01:52:08.054                : en:Chapter 35
    01:58:06.204                : en:Chapter 36

  • Peso: 35.3 GiB

Sinopsis

Un grupo de científicos y exploradores emprende un viaje espacial a un remoto planeta, en el que sus límites físicos y mentales serán puestos a prueba. El motivo de la misión es que los humanos creen que allá podrán encontrar las respuestas a las preguntas más profundas y al mayor de los misterios: el origen de la vida en la Tierra.

Ficha técnica

Video trailer de la película

Enlaces de descarga

Rip de Bluray

Descargar Prometheus (2012) REMUX 4K HDR Latino – CMHDD


Aportes de DPeliculasHDmega la pass es:dpeliculashdmega.org Aportes de CinemaniaHD la pass es:cinemaniahdd.com Aportes recientes:cinemaniahdd.net

Películas relacionadas

descargar Prometheus (2012) REMUX 4K HDR Latino – CMHDD 4K HDR 1080p gratis, Prometheus (2012) REMUX 4K HDR Latino – CMHDD 4K HDR mega 1 link, Prometheus (2012) REMUX 4K HDR Latino – CMHDD 4K HDR pelicula completa, descargar Prometheus (2012) REMUX 4K HDR Latino – CMHDD 4K HDR gratis en mega.

Prometheus (2012) REMUX 4K HDR Latino – CMHDD pelicula full hd, Prometheus (2012) REMUX 4K HDR Latino – CMHDD mega latino, Prometheus (2012) REMUX 4K HDR Latino – CMHDD 4k latino, Prometheus (2012) REMUX 4K HDR Latino – CMHDD pelicula completa, Prometheus (2012) REMUX 4K HDR Latino – CMHDD descargar gratis, descargar Prometheus (2012) REMUX 4K HDR Latino – CMHDD pelicula latino, Prometheus (2012) REMUX 4K HDR Latino – CMHDD 1 link mega, Prometheus (2012) REMUX 4K HDR Latino – CMHDD 1 link google drive, Prometheus (2012) REMUX 4K HDR Latino – CMHDD hd 1080p latino.
Comentarios 0